<?xml version="1.0" standalone="no"?>
<!DOCTYPE svg PUBLIC "-//W3C//DTD SVG 1.1//EN" "http://www.w3.org/Graphics/SVG/1.1/DTD/svg11.dtd" >
<svg xmlns="http://www.w3.org/2000/svg">
<metadata>
<json>
<![CDATA[
{
	"fontFamily": "lp-icon",
	"majorVersion": 1,
	"minorVersion": 0,
	"version": "Version 1.0",
	"fontId": "lp-icon",
	"psName": "lp-icon",
	"subFamily": "Regular",
	"fullName": "lp-icon",
	"description": "Font generated by IcoMoon."
}
]]>
</json>
</metadata>
<defs>
<font id="lp-icon" horiz-adv-x="1024">
<font-face units-per-em="1024" ascent="960" descent="-64" />
<missing-glyph horiz-adv-x="1024" />
<glyph unicode="&#x20;" horiz-adv-x="512" d="" />
<glyph unicode="&#xe900;" glyph-name="my-courses" data-tags="my-courses" d="M168.435-28.139c0.079-18.371-4.935-31.886-21.987-39.778h-118.564c-9.739 4.723-16.998 11.956-21.723 21.724v410.96c7.891 17.074 21.38 22.62 39.776 22.014 29.562-1.002 59.203-0.239 88.818-0.29 21.643-0.055 33.388-11.85 33.388-33.679 0.053-126.984-0.211-253.967 0.29-380.95zM1008.704 254.224c-12.613-20.799-26.179-41.042-39.354-61.524-24.704-38.485-49.356-76.965-74.165-115.396-37.059-57.357-89.768-85.969-158.079-85.969-165.914 0.028-331.831 0.028-497.772 0.028h-11.877v11.165c0 105.021 0.053 210.047-0.158 315.068-0.026 7.050 2.191 11.142 7.813 15.364 26.976 20.243 55.798 35.923 89.821 40.329 51.073 6.576 96.579-6.226 135.933-39.51 5.725-4.856 11.215-6.705 18.527-6.677 65.511 0.211 131.048 0.368 196.559 0 27.265-0.161 48.197-12.747 60.944-36.875 12.591-23.779 11.271-47.824-3.826-70.128-14.306-21.172-35.050-31.146-60.548-31.174-58.939-0.028-117.879 0.106-176.79-0.051-22.542-0.083-37.138-20.671-28.93-40.49 4.856-11.745 14.094-18.532 26.713-18.583 72.11-0.211 144.219-1.030 216.3 0.451 36.899 0.736 66.329 19.135 88.715 48.538 34.499 45.318 69.152 90.481 103.729 135.72 2.189 2.879 4.382 5.753 6.626 8.604 20.85 26.078 55.665 31.357 82.98 12.536 26.345-18.131 33.919-53.316 16.84-81.426zM282.073 899.645c0 25.397 20.589 45.986 45.986 45.986h168.614c42.007 0 82.295-16.688 112.002-46.392 29.701-29.705 46.39-69.993 46.39-112.002v-393.429c0-25.398-20.588-45.986-45.986-45.986s-45.986 20.588-45.986 45.986c0 10.162-4.037 19.912-11.225 27.099-7.183 7.183-16.932 11.221-27.094 11.221h-196.715c-25.397 0-45.986 20.588-45.986 45.986v421.533zM563.093 518.336v268.901c0 17.616-6.999 34.512-19.456 46.967-12.453 12.457-29.348 19.455-46.964 19.455h-122.629v-329.562h150.731c13.11 0 26.014-1.972 38.319-5.762zM609.487 899.237c29.701 29.705 69.99 46.392 112.002 46.392h168.61c25.398 0 45.986-20.589 45.986-45.986v-421.533c0-25.398-20.588-45.986-45.986-45.986h-196.715c-10.162 0-19.907-4.037-27.094-11.221-7.188-7.188-11.225-16.936-11.225-27.099 0-25.398-20.588-45.986-45.986-45.986s-45.986 20.588-45.986 45.986v393.429c0 42.009 16.688 82.297 46.394 112.002zM655.063 518.336c12.306 3.789 25.214 5.762 38.319 5.762h150.731v329.562h-122.624c-17.617 0-34.512-6.998-46.97-19.455s-19.456-29.351-19.456-46.967v-268.901z" />
<glyph unicode="&#xe901;" glyph-name="clock" data-tags="clock" d="M512 914.285c262.637 0 475.428-212.792 475.428-475.428s-212.792-475.428-475.428-475.428-475.428 212.792-475.428 475.428 212.792 475.428 475.428 475.428zM512 55.446c211.833 0 383.411 171.575 383.411 383.411s-171.575 383.411-383.411 383.411-383.411-171.575-383.411-383.411 171.575-383.411 383.411-383.411zM630.473 255.586l-162.758 118.281c-5.943 4.41-9.395 11.311-9.395 18.597v314.781c0 12.651 10.353 23.004 23.004 23.004h61.345c12.651 0 23.004-10.353 23.004-23.004v-271.648l128.059-93.167c10.353-7.478 12.463-21.855 4.984-32.205l-36.044-49.652c-7.476-10.16-21.852-12.463-32.205-4.984z" />
<glyph unicode="&#xe902;" glyph-name="students" data-tags="ico-students" d="M768 54.857v85.333c0 58.88-23.936 112.299-62.464 150.869s-91.989 62.464-150.869 62.464h-341.333c-58.88 0-112.299-23.936-150.869-62.464s-62.464-91.989-62.464-150.869v-85.333c0-23.552 19.115-42.667 42.667-42.667s42.667 19.115 42.667 42.667v85.333c0 35.371 14.293 67.285 37.504 90.496s55.125 37.504 90.496 37.504h341.333c35.371 0 67.285-14.293 90.496-37.504s37.504-55.125 37.504-90.496v-85.333c0-23.552 19.115-42.667 42.667-42.667s42.667 19.115 42.667 42.667zM597.333 652.19c0 58.88-23.936 112.299-62.464 150.869s-91.989 62.464-150.869 62.464-112.299-23.936-150.869-62.464-62.464-91.989-62.464-150.869 23.936-112.299 62.464-150.869 91.989-62.464 150.869-62.464 112.299 23.936 150.869 62.464 62.464 91.989 62.464 150.869zM512 652.19c0-35.371-14.293-67.285-37.504-90.496s-55.125-37.504-90.496-37.504-67.285 14.293-90.496 37.504-37.504 55.125-37.504 90.496 14.293 67.285 37.504 90.496 55.125 37.504 90.496 37.504 67.285-14.293 90.496-37.504 37.504-55.125 37.504-90.496zM1024 54.857v85.333c-0.043 53.12-19.499 101.76-51.84 139.136-27.819 32.128-65.195 55.936-107.904 67.243-22.784 6.016-46.123-7.552-52.139-30.336s7.552-46.123 30.336-52.139c25.899-6.869 48.469-21.248 65.195-40.619 19.371-22.443 30.976-51.456 31.019-83.285v-85.333c0-23.552 19.115-42.667 42.667-42.667s42.667 19.115 42.667 42.667zM672.085 775.966c34.261-8.789 61.653-30.507 78.379-58.752s22.656-62.72 13.867-96.981c-7.509-29.355-24.533-53.589-47.147-70.485-13.397-10.027-28.8-17.451-45.355-21.803-22.784-5.973-36.437-29.312-30.421-52.096s29.312-36.437 52.096-30.421c27.179 7.125 52.565 19.413 74.752 36.011 37.717 28.16 66.219 68.821 78.72 117.675 14.592 57.045 4.693 114.731-23.125 161.621s-73.6 83.328-130.645 97.963c-22.827 5.845-46.080-7.936-51.925-30.763s7.936-46.080 30.763-51.925z" />
<glyph unicode="&#xe903;" glyph-name="courses" data-tags="ico-courses" d="M213.333 97.524v682.667h85.333v-298.667l106.667 64 106.667-64v298.667h213.333v-302.080c14.080 2.133 28.16 3.413 42.667 3.413s28.587-1.28 42.667-3.413v302.080c0 46.933-38.4 85.333-85.333 85.333h-512c-46.933 0-85.333-38.4-85.333-85.333v-682.667c0-46.933 38.4-85.333 85.333-85.333h309.76c-17.92 25.6-32 54.613-41.387 85.333h-268.373zM768 396.19c-117.76 0-213.333-95.573-213.333-213.333s95.573-213.333 213.333-213.333 213.333 95.573 213.333 213.333-95.573 213.333-213.333 213.333zM714.667 76.19v213.333l170.667-106.667-170.667-106.667z" />
<glyph unicode="&#xe904;" glyph-name="co-instructor" data-tags="co-instructor" d="M813.282 651.056c-15.083 8.707-33.006 11.067-49.827 6.56s-31.165-15.512-39.869-30.594c-8.709-15.082-11.069-33.004-6.56-49.826 4.504-16.821 15.512-31.163 30.595-39.87 15.078-8.706 33.001-11.065 49.821-6.561 16.825 4.509 31.165 15.513 39.875 30.595 8.705 15.082 11.064 33.005 6.56 49.826-4.509 16.822-15.512 31.163-30.595 39.871zM739.271 747.879c40.757 10.921 84.188 5.204 120.736-15.895 36.543-21.099 63.213-55.852 74.133-96.613 10.924-40.761 5.205-84.191-15.895-120.737-21.1-36.543-55.849-63.213-96.612-74.133-40.762-10.924-84.192-5.205-120.736 15.895-36.548 21.096-63.213 55.849-74.137 96.612-10.919 40.762-5.205 84.191 15.895 120.737s55.854 63.211 96.616 74.134zM274.082 651.056c-15.082 8.707-33.004 11.067-49.826 6.56s-31.163-15.512-39.87-30.594c-8.707-15.082-11.067-33.004-6.56-49.826s15.512-31.163 30.594-39.87c15.082-8.706 33.004-11.065 49.826-6.561 16.821 4.509 31.163 15.513 39.87 30.595s11.067 33.005 6.56 49.826c-4.507 16.822-15.512 31.163-30.594 39.871zM200.070 747.879c40.761 10.921 84.191 5.204 120.737-15.895s63.212-55.852 74.134-96.613c10.921-40.761 5.204-84.191-15.895-120.737-21.099-36.543-55.852-63.213-96.614-74.133-40.761-10.924-84.191-5.205-120.737 15.895-36.546 21.096-63.212 55.849-74.134 96.612s-5.204 84.191 15.895 120.737c21.099 36.546 55.852 63.211 96.614 74.134zM511.621 528.526c-65.559 0-118.702 53.144-118.702 118.701s53.143 118.7 118.702 118.7c65.554 0 118.698-53.144 118.698-118.7s-53.144-118.701-118.698-118.701zM511.621 435.077c117.166 0 212.147 94.981 212.147 212.149s-94.981 212.148-212.147 212.148c-117.168 0-212.15-94.982-212.15-212.148 0-117.168 94.982-212.149 212.15-212.149zM744.322 279.318c32.421-37.342 51.373-79.558 62.503-115.735h121.717c-20.554 55.564-62.764 118.698-151.751 118.698-11.765 0-22.554-1.051-32.469-2.962zM630.838 328.531c37.463 28.455 85.734 47.197 145.952 47.197 157.974 0 221.533-125.005 244.003-192.877 20.661-62.428-30.871-112.717-84.781-112.717h-203.741l-7.555 37.496c-9.377 46.566-33.001 108.386-90.294 144.017l-57.63 35.837 54.046 41.048zM94.687 163.581h121.726c11.131 36.179 30.080 78.394 62.502 115.735-9.918 1.911-20.708 2.962-32.475 2.962-88.984 0-131.197-63.133-151.752-118.698zM2.438 182.851c22.467 67.872 86.029 192.877 244 192.877 60.222 0 108.491-18.742 145.958-47.197l54.040-41.048-57.625-35.837c-57.29-35.632-80.916-97.453-90.294-144.017l-7.553-37.496h-203.747c-53.913 0-105.446 50.289-84.779 112.717zM299.113 110.545h425.005c-6.916 32.679-21.222 73.684-49.962 107.012-29.805 34.557-78.315 64.722-162.54 64.722-84.229 0-132.74-30.166-162.543-64.722-28.741-33.328-43.047-74.333-49.962-107.012zM278.307 278.584c48.19 55.882 122.889 97.144 233.309 97.144 110.414 0 185.116-41.262 233.303-97.144 46.626-54.059 65.227-117.974 72.861-160.124 10.667-58.858-37.847-101.363-87.706-101.363h-436.922c-49.857 0-98.374 42.505-87.709 101.363 7.638 42.15 26.24 106.063 72.862 160.124z" />
<glyph unicode="&#xe905;" glyph-name="dropbox" data-tags="dropbox" d="M312.781 926.618l-292.301-182.016 200.243-167.885 291.277 189.082-199.219 160.819zM688.742 154.010c-5.222 0-10.394 1.69-14.592 5.222l-162.15 134.554-162.15-134.605c-4.198-3.482-9.421-5.222-14.592-5.222-4.352 0-8.704 1.178-12.493 3.686l-120.115 78.49v-46.285l309.35-194.867 309.35 194.918v46.285l-120.115-78.49c-3.789-2.509-8.141-3.686-12.493-3.686zM1003.52 744.602l-292.352 182.016-199.168-160.819 291.226-189.082 200.294 167.885zM512 394.701l180.634-149.914 288.819 188.826-178.227 143.104-291.226-182.016zM331.366 244.787l180.634 149.914-291.277 182.016-178.176-143.104 288.819-188.826z" />
<glyph unicode="&#xe906;" glyph-name="box" data-tags="box" d="M809.003 647.339l-297.003-171.819-297.003 171.819 275.456 157.397c4.779 2.731 9.899 4.48 15.147 5.291 9.301 1.451 18.987-0.128 27.904-5.291zM491.776-41.002c6.016-3.243 12.928-5.077 20.224-5.077 7.381 0 14.336 1.877 20.395 5.163 15.189 2.475 29.909 7.68 43.392 15.36l298.709 170.709c26.368 15.232 45.227 38.272 55.424 64.597 5.675 14.592 8.619 30.165 8.747 46.251v341.333c0 20.395-4.821 39.723-13.397 56.917-0.939 3.029-2.219 5.973-3.883 8.832-1.963 3.371-4.267 6.357-6.912 8.96-1.323 1.835-2.731 3.669-4.139 5.419-9.813 12.203-21.845 22.528-35.456 30.507l-299.051 170.88c-26.027 15.019-55.467 19.84-83.371 15.531-15.488-2.432-30.507-7.637-44.245-15.488l-298.709-170.709c-16.341-9.429-29.824-21.888-40.149-36.267-2.56-2.56-4.864-5.547-6.784-8.832-1.664-2.901-2.987-5.888-3.925-8.96-1.707-3.413-3.243-6.955-4.608-10.496-5.632-14.635-8.576-30.208-8.704-45.995v-341.632c0.043-30.293 10.581-58.155 28.331-80.128 9.813-12.203 21.845-22.528 35.456-30.507l299.051-170.88c13.824-7.979 28.587-13.099 43.605-15.445zM469.333 401.622v-340.949l-277.12 158.336c-4.736 2.773-8.832 6.315-12.16 10.453-5.931 7.339-9.387 16.469-9.387 26.539v318.379zM554.667 60.672v340.949l298.667 172.757v-318.379c-0.043-5.163-1.067-10.496-2.987-15.445-3.413-8.789-9.6-16.384-18.176-21.333z" />
<glyph unicode="&#xe907;" glyph-name="close-circle" data-tags="close-circle" d="M512 865.524c-235.642 0-426.667-191.025-426.667-426.667s191.025-426.669 426.667-426.669c235.642 0 426.669 191.027 426.669 426.669s-191.027 426.667-426.669 426.667zM0 438.857c0 282.77 229.23 512 512 512s512-229.23 512-512c0-282.771-229.229-512-512-512s-512 229.229-512 512zM314.122 636.673c14.996 14.996 39.309 14.996 54.306 0l143.514-143.514 143.514 143.514c14.995 14.996 39.309 14.996 54.304 0s14.995-39.31 0-54.306l-143.512-143.514 143.512-143.516c14.995-14.995 14.995-39.309 0-54.304s-39.309-14.995-54.304 0l-143.514 143.514-143.514-143.514c-14.996-14.995-39.31-14.995-54.306 0s-14.996 39.309 0 54.304l143.514 143.516-143.514 143.514c-14.996 14.996-14.996 39.309 0 54.306z" />
<glyph unicode="&#xe908;" glyph-name="tiktok-alt" data-tags="tiktok-alt" d="M517.359 864.812c46.579 0.711 92.8 0.356 139.021 0.711 2.846-54.399 22.4-109.865 62.225-148.265 39.821-39.466 95.996-57.599 150.75-63.643v-143.287c-51.2 1.779-102.754 12.446-149.329 34.489-20.267 9.244-39.113 20.977-57.6 33.066-0.354-103.822 0.354-207.643-0.713-311.11-2.842-49.775-19.2-99.196-48-140.083-46.575-68.267-127.287-112.713-210.129-114.133-50.843-2.846-101.688 11.021-145.065 36.621-71.821 42.313-122.309 119.821-129.776 203.021-0.711 17.775-1.067 35.554-0.356 52.975 6.4 67.554 39.822 132.267 91.732 176.354 59.022 51.2 141.509 75.733 218.665 61.156 0.708-52.623-1.425-105.243-1.425-157.864-35.197 11.375-76.441 8.175-107.374-13.158-22.4-14.575-39.466-36.975-48.355-62.221-7.466-18.133-5.333-38.042-4.977-57.242 8.533-58.313 64.71-107.375 124.442-102.046 39.823 0.358 77.864 23.467 98.489 57.246 6.754 11.733 14.221 23.821 14.575 37.687 3.558 63.646 2.133 126.933 2.492 190.575 0.354 143.289-0.358 286.22 0.708 429.151z" />
<glyph unicode="&#xe909;" glyph-name="alarm-clock" data-tags="alarm-clock" d="M243.503 853.027c-16.663 16.662-43.677 16.662-60.34 0l-128-128c-16.662-16.663-16.662-43.677 0-60.34s43.677-16.662 60.34 0l128 128c16.662 16.663 16.662 43.677 0 60.34zM780.497 853.027c-16.661-16.663-16.661-43.677 0-60.34l128-128c16.661-16.662 43.678-16.662 60.339 0s16.661 43.677 0 60.34l-128 128c-16.661 16.662-43.678 16.662-60.339 0zM512 694.857c164.949 0 298.667-133.718 298.667-298.667 0-81.715-32.819-155.767-85.99-209.694-0.823-0.713-1.621-1.463-2.398-2.249-0.593-0.602-1.161-1.212-1.711-1.835-53.828-52.527-127.42-84.89-208.567-84.89-164.949 0-298.667 133.717-298.667 298.667s133.718 298.667 298.667 298.667zM811.622 155.994c52.791 65.771 84.378 149.295 84.378 240.196 0 212.077-171.921 384-384 384-212.077 0-384-171.923-384-384 0-91.29 31.855-175.138 85.055-241.037l-72.038-69.615c-16.945-16.375-17.406-43.388-1.031-60.331 16.375-16.947 43.386-17.408 60.331-1.033l73.364 70.899c65.48-51.895 148.281-82.884 238.32-82.884 90.432 0 173.564 31.262 239.177 83.567l72.179-71.262c16.768-16.555 43.785-16.384 60.339 0.384s16.384 43.785-0.384 60.339l-71.689 70.775zM512 609.524c-23.565 0-42.667-19.103-42.667-42.667v-170.667c0-11.315 4.497-22.17 12.497-30.17l85.333-85.333c16.661-16.661 43.678-16.661 60.339 0s16.661 43.678 0 60.339l-72.836 72.836v152.994c0 23.564-19.102 42.667-42.667 42.667z" />
<glyph unicode="&#xe90a;" glyph-name="art-and-design" data-tags="art-and-design" d="M962.129 511.817c-1.707 11.947-10.24 18.773-23.040 18.773-34.133 0.427-67.84 0.427-101.973 0.427-2.133 0-4.693 0-8.107 0l-11.52 1.707 5.12 10.667c0 0 2.133 3.84 2.56 5.973 0.853 1.707 1.707 3.413 2.56 5.12l33.707 69.547c32.853 68.267 65.707 136.533 98.133 204.8 3.413 7.253 4.693 14.933 3.413 19.627-1.707 5.12-7.253 11.52-12.373 14.080-53.76 26.88-108.373 52.907-160 77.227-3.84 1.707-7.68 2.987-11.093 2.987-10.24 0-16.213-8.533-19.627-15.36-12.373-25.6-24.747-51.2-36.693-76.373-12.373-26.027-24.747-51.627-37.12-77.227-1.707-3.413-3.413-5.973-5.547-10.24l-8.533-19.2-7.253 19.627c-1.707 4.693-2.56 7.253-3.84 10.24-7.68 22.187-14.507 43.947-21.76 65.28-9.813 29.013-19.627 58.027-29.013 87.040-3.84 12.373-9.387 19.627-17.493 23.893h-11.947c-8.533-4.267-13.653-11.52-17.92-23.893-10.667-32.853-21.333-65.707-32.427-98.56-7.253-21.76-14.507-43.52-21.76-65.28-2.133-8.533-3.413-14.933-3.413-20.907v-210.773h-77.227v17.493c0 47.787 0 95.573 0.427 142.933 0 6.4 2.133 12.8 5.547 18.347 27.307 37.547 31.147 75.093 11.947 114.347-23.040 47.36-55.466 87.040-84.052 119.893-1.707 1.707-4.693 3.413-7.68 5.12l-2.133 1.28h-10.24c-2.56-2.133-4.693-3.84-6.827-5.547-4.693-3.84-9.387-7.253-12.8-11.52-28.587-34.56-58.88-72.107-78.080-116.053-15.36-36.267-11.093-70.827 14.080-106.24 3.413-4.693 6.827-9.813 6.827-15.787v-164.693h-30.293c-14.080-0.427-21.76-6.826-23.893-20.48-2.56-14.507-4.267-27.733-4.693-40.533-0.853-10.24-3.84-18.773-9.387-27.307-17.493-26.027-34.987-52.053-52.48-78.080s-34.56-52.053-52.053-78.080c-5.973-8.96-8.107-16.64-6.4-22.613 1.28-5.973 7.253-11.52 16.64-16.213 29.867-15.36 59.733-30.293 90.027-45.227 8.533-3.84 12.8-10.24 12.8-20.48 0-30.293 0-61.013 0-91.733 0-50.773 35.413-86.187 86.613-86.187h152.746v-8.107l0.427-13.227c-0.427-19.627 0-31.573 15.36-38.827h376.32c10.667 4.693 15.787 12.373 17.067 24.747 8.533 85.76 28.16 172.373 60.16 265.387 5.12 14.933 10.667 29.867 16.213 45.227 7.68 19.2 14.933 39.253 21.333 59.733 16.64 53.76 20.48 111.787 10.667 172.8v0.427zM679.249 662.003c19.627 39.68 38.827 79.787 58.027 119.893 14.507 30.293 29.44 61.013 43.947 91.307 1.28 2.133 2.56 5.12 3.84 7.68l5.973 11.947 7.68-3.84 53.333-25.6 54.613-26.453 7.68-3.84-3.84-7.68c-5.547-10.667-10.24-20.907-15.36-31.573l-10.667-22.187-3.84-7.68-7.68 3.84c-17.493 8.533-33.707 16.64-50.773 24.32-4.693 2.133-9.387 3.413-13.653 3.413-8.107 0-14.933-4.693-18.347-12.373-5.12-11.52 0-23.467 13.653-29.867 16.64-8.107 33.28-16.213 50.347-24.32l8.107-3.413-3.84-8.107c-8.96-18.347-17.493-35.84-26.027-53.76l-3.413-7.253-7.68 3.413c-11.947 5.547-23.040 10.667-34.56 16.213l-17.067 8.107c-4.267 2.133-8.96 2.987-12.8 2.987-8.533 0-14.507-3.84-18.347-11.52-2.56-5.12-2.987-10.24-1.28-15.36 1.707-5.973 7.253-11.52 14.507-14.933 16.64-8.107 33.707-16.213 50.773-24.32l7.253-3.413-3.413-7.68c-11.093-24.32-22.187-46.933-33.28-69.547-2.987-4.693-9.387-9.387-14.933-9.387h-89.6v12.373c0 0-0.427 3.413-0.427 5.12v17.92c0.427 14.507 0.427 29.44-0.427 44.373-0.853 17.067 2.987 33.28 11.52 51.2zM560.209 782.323c5.973 17.493 11.52 34.133 17.067 51.2l1.707 5.973h12.373l4.267-5.547c3.84-11.52 7.68-23.040 11.52-34.56l5.973-17.067 3.84-11.093h-60.587l3.84 11.093zM548.689 727.283h75.52v-195.84h-75.52v195.84zM286.29 807.497c14.933 26.88 32.427 53.333 53.333 80.64l6.827 8.96 6.827-8.96 3.413-4.693c22.613-29.013 43.52-56.32 55.467-90.88 5.973-16.64 2.987-35.413-8.533-51.627-13.227-18.347-34.987-30.293-57.173-30.293-3.413 0-6.4 0.427-9.813 0.853-21.76 3.413-41.387 17.92-51.627 37.973-9.387 18.773-8.96 40.107 1.28 58.027zM384.85 669.683v-138.24h-76.373v138.24h76.373zM920.316 394.057c-4.693-33.28-16.64-64-28.16-93.867-4.267-10.667-8.107-21.333-11.947-32-32.853-93.867-54.187-180.053-65.707-264.533 0-2.987-1.28-6.827-2.133-10.24l-1.707-5.973h-322.56v35.413c0 15.36-8.533 23.893-24.32 23.893h-171.946c-27.307 0-43.947 16.64-43.947 43.947v27.733c0 28.16 0 56.32 0.427 84.053 0 14.933-5.12 23.040-18.347 29.44-19.627 9.387-39.253 19.2-58.88 29.44l-24.32 11.947-8.96 4.693 5.973 8.107c0 0 2.133 3.413 2.987 4.693l2.133 3.413c29.44 44.8 59.307 89.6 89.173 133.973 8.107 11.093 11.093 20.48 10.24 31.147-0.427 4.267 0 8.533 0.853 13.653 0 2.133 0.427 4.267 0.427 6.4v8.107h671.999l0.853-7.68c2.987-25.6 2.56-52.48-2.133-85.76z" />
<glyph unicode="&#xe90b;" glyph-name="best-customer-experience" data-tags="best-customer-experience" d="M939.947 598.003c-78.080 81.493-159.573 162.133-238.507 240.213l-50.773 50.347c-33.707 33.28-75.52 55.467-125.013 61.44h-53.76l-11.947-2.56c-9.387-1.707-18.347-3.84-27.307-6.4-35.413-9.387-66.133-27.307-92.16-52.48-12.8-12.8-25.6-25.6-38.4-38.827l-26.88-27.307 56.32-55.467c-159.147-90.453-224.853-228.267-195.84-410.026h-113.92v-391.253h54.613c34.133 0 67.84 0 101.973 0 3.413 0 7.68-1.28 11.093-3.413 12.8-7.253 25.173-14.507 37.973-22.187l9.387-5.547c1.28-0.853 2.56-1.707 3.84-2.987l5.547-4.693h4.267l261.973 0.427 6.4 1.707c4.267 0.853 8.533 2.133 12.373 2.987 59.307 16.213 101.547 70.4 103.253 132.267 0 6.4 0 12.373 0 18.773 0 7.253 0 14.507 0 21.333 81.92 36.693 143.36 95.573 182.613 174.933l56.747-57.173 8.96 9.387c7.68 8.107 16.213 16.213 23.893 23.893 32 31.147 64.853 63.573 80.64 109.653 30.293 88.747 14.080 169.386-47.36 232.959zM766.72 340.297l-11.52 4.267v0.427l11.52-4.693zM634.88 251.977c-0.853 60.16-37.12 111.36-93.013 130.987-10.667 3.84-21.76 5.12-32.427 6.827l-10.667 1.707c-0.853 0-2.133 0.427-2.987 0.427 0 9.387 0.427 18.773-0.427 27.733-0.427 5.12-0.427 10.24-0.427 14.933-0.427 15.787-0.853 32.427-5.12 48.213-14.933 59.732-71.253 103.252-133.973 103.679h-0.427c-47.36 0-83.627-35.84-84.48-83.199 0-12.373 0-25.173 0-37.547 0-13.653 0-27.733 0-41.387 0-1.28-0.853-4.267-2.987-7.253-1.707-2.56-4.267-5.12-6.4-7.68-3.413-3.84-6.827-7.68-9.387-11.947-7.68-11.947-19.2-18.347-33.707-24.747 0 0.853-0.427 1.707-0.427 2.133-2.56 11.52-4.693 22.613-5.547 33.707-8.533 117.332 37.547 209.066 136.533 271.786 9.387 5.973 19.2 10.24 29.867 14.507 5.973 2.56 11.947 5.12 17.493 7.253 25.6-26.027 51.2-51.627 76.8-77.227l35.84-34.987 53.76 54.187 132.693-133.119-57.6-57.173 16.64-12.8c2.987-2.133 5.547-4.267 8.107-6.4l91.307-91.307c-23.467-61.867-62.72-110.080-119.467-144.64v2.987c0.427 17.067 0.427 33.707 0.427 50.347zM238.934 289.524l0.427 0.853c43.52 13.227 70.4 43.947 98.987 79.787 11.947 15.36 17.067 29.013 16.213 45.653-0.853 19.627-0.853 39.253-0.427 59.307v23.040c0 2.133 0 3.413 0 4.267 0.853 0 2.133 0 4.693 0 26.88-1.28 50.773-24.747 52.053-50.773s1.28-52.48 0.853-78.507v-32.427c0-27.733 5.547-33.28 33.28-33.28h13.227c12.373 0 24.747 0 37.12-0.427 31.147-0.853 54.613-24.747 55.040-55.040 0.853-63.573 0.853-126.72 0-186.88-0.427-30.72-25.6-55.040-56.747-55.040-25.173 0-50.347 0-75.52 0h-58.88c-26.88 0-53.76 0-80.64 0-3.413 0-7.68 1.28-11.52 3.413-9.813 5.12-19.2 10.667-29.013 17.493-0.427 86.187-0.427 172.373-0.427 255.573 0 1.28 0.853 2.133 1.28 2.987zM813.653 510.964l-250.453 250.452-52.48-52.907-116.053 116.48c32.426 32 71.68 46.080 116.053 41.813 33.28-3.413 62.293-17.493 87.893-43.52 43.52-43.947 87.467-87.467 130.987-131.413 48.64-48.64 97.28-97.28 145.493-145.92 29.44-29.866 44.8-68.266 43.093-108.372-1.707-36.267-16.64-69.547-42.667-95.147l-115.627 116.053 53.76 52.48zM104.107 273.31c14.507-0.427 28.587-0.427 43.52-0.427h5.973v-223.147h-49.493v50.773c0.427 57.173 0.427 113.92 0 172.8z" />
<glyph unicode="&#xe90c;" glyph-name="certificate-o" data-tags="certificate-o" d="M159.289 949.312c3.706 1.025 7.533 1.545 11.378 1.545h640c23.565 0 42.667-19.103 42.667-42.667v-512h128c23.565 0 42.667-19.102 42.667-42.667v-170.667c0-4.587-0.738-9.143-2.189-13.491l-21.333-64c-4.25-12.74-14.246-22.737-26.987-26.987l-64-21.333c-4.348-1.451-8.905-2.189-13.491-2.189h-256.717l0.717-84.975c0.128-15.433-8.090-29.734-21.487-37.397-13.402-7.663-29.897-7.488-43.132 0.452l-84.715 50.829-84.715-50.829c-13.236-7.94-29.73-8.115-43.13-0.452s-21.617 21.965-21.487 37.397l0.715 84.975h-128.717c-23.564 0-42.667 19.102-42.667 42.667v469.333h-128c-23.564 0-42.667 19.103-42.667 42.667v170.667c0 3.845 0.52 7.672 1.545 11.378l41.122-11.378c-41.122 11.378-41.123 11.372-41.122 11.378l0.039 0.14 0.064 0.227 0.201 0.705c0.166 0.579 0.398 1.373 0.693 2.36 0.59 1.972 1.437 4.724 2.531 8.072 2.177 6.66 5.387 15.857 9.553 26.048 7.686 18.806 20.958 46.993 40.538 66.574s47.768 32.851 66.574 40.538c10.191 4.165 19.387 7.376 26.048 9.553 3.348 1.094 6.1 1.941 8.072 2.531 0.987 0.295 1.781 0.527 2.36 0.693l1.072 0.304c0.006 0.002 0 0 11.378-41.122l-11.378 41.122zM176.94 865.524c-0.804-0.254-1.69-0.538-2.648-0.851-5.223-1.707-12.42-4.223-20.269-7.431-17.274-7.060-31.754-15.122-38.519-21.888s-14.828-21.245-21.888-38.519c-3.208-7.849-5.724-15.046-7.431-20.269-0.313-0.958-0.597-1.844-0.851-2.648v-121.727h469.333v128c0 1.696 0.102 3.389 0.303 5.073l42.364-5.073c-42.364 5.073-42.364 5.065-42.364 5.073l0.009 0.064 0.009 0.079 0.026 0.202 0.073 0.575c0.060 0.457 0.141 1.062 0.247 1.799 0.213 1.474 0.521 3.492 0.947 5.946 0.841 4.879 2.159 11.628 4.105 19.332 3.516 13.939 9.882 34.298 21.265 52.262h-404.709zM698.423 865.524c-3.695-3.24-8.004-7.090-12.531-11.28-14.071-13.017-26.539-25.938-31.723-33.721-4.322-6.482-8.222-16.943-11.051-28.149-1.306-5.172-2.193-9.737-2.752-12.952-0.145-0.86-0.269-1.612-0.367-2.241v-167.657c0-23.564-19.102-42.667-42.667-42.667h-341.333v-426.667h86.769l0.579 68.864c-27.86 33.31-44.681 76.288-44.681 123.136 0 106.039 85.961 192 192 192s192-85.961 192-192c0-46.848-16.823-89.826-44.681-123.136l0.58-68.864h129.434v725.333h-69.577zM853.333 140.19h35.742l37.193 12.399 12.399 37.193v121.075h-85.333v-170.667zM553.139 150.592c-19.588-6.737-40.61-10.402-62.473-10.402s-42.884 3.665-62.473 10.402l-0.887-105.327 41.408 24.845c13.513 8.107 30.391 8.107 43.904 0l41.408-24.845-0.887 105.327zM639.684 774.997c0-0.001 0-0.001 0 0zM490.667 438.857c-58.91 0-106.667-47.757-106.667-106.667 0-29.854 12.21-56.781 32.017-76.194 19.281-18.893 45.572-30.473 74.649-30.473s55.369 11.58 74.65 30.473c19.806 19.413 32.017 46.34 32.017 76.194 0 58.91-47.757 106.667-106.667 106.667z" />
<glyph unicode="&#xe90d;" glyph-name="community" data-tags="community" d="M1006.507 7.924c0 0-0.853 2.133-1.28 3.413-8.107 70.4-40.107 128-95.147 171.52-12.8 10.24-26.88 18.773-40.533 26.88-5.973 3.413-11.947 7.253-17.92 10.667-2.133 1.28-3.413 3.84-3.84 6.4-0.427 2.133 0.427 4.693 2.133 6.827 27.733 29.013 41.813 64.427 40.96 101.547-1.28 36.267-17.493 73.387-42.667 96.853-26.027 24.747-60.16 37.973-95.573 37.973-31.147 0-60.587-10.24-85.333-29.867-26.453-20.907-43.093-48.213-49.067-81.067-8.96-47.787 4.693-90.453 40.107-126.72 2.133-2.133 2.987-4.693 2.56-7.68-0.853-2.56-2.56-5.12-5.12-5.973-38.827-17.067-70.827-40.96-97.707-72.107-1.707-1.707-3.84-2.987-6.4-2.987h-0.427c-2.56 0-5.12 1.707-6.827 3.84-18.347 26.88-38.4 49.067-61.867 67.84-23.040 18.347-49.493 33.707-79.36 45.653-2.56 1.28-4.267 3.84-5.12 6.4-0.427 2.987 0 5.973 2.987 8.107 34.133 31.147 53.76 72.533 54.613 116.907 1.28 43.52-14.933 85.76-44.373 115.627-30.72 31.147-71.68 48.213-114.773 48.213-36.267 0-70.4-11.947-98.133-34.56-32.427-25.173-51.627-58.027-58.027-96.853-9.387-57.173 8.107-107.093 52.907-148.907 1.707-2.133 2.56-4.693 2.56-7.253s-1.707-4.693-3.84-6.4c-1.28-0.853-2.987-1.707-4.693-2.133l-1.707-0.853-2.133-0.853c-90.453-40.107-149.333-108.373-174.933-203.093-2.56-10.24-4.267-21.333-5.973-31.573-0.853-5.547-1.707-11.52-2.56-17.067v-28.16c5.547-11.52 14.507-16.213 30.72-16.213 157.44 0 315.307 0.427 473.173 0.427s315.307-0.427 472.747-0.427c15.787 0 24.747 4.693 30.293 15.787v28.16c0 0-0.427 0.853-0.427 1.707zM185.173 396.617c0 29.867 11.093 58.027 32 78.933 20.907 21.333 49.067 33.28 78.933 33.28h0.853c61.44 0 111.787-49.92 111.787-111.36s-49.493-111.787-112.213-112.213c-61.44 0-111.36 49.92-111.36 111.36zM545.707 8.777c0 0-3.84-2.56-6.4-2.56h-485.547c-2.56 0-4.693 0.853-6.4 2.987-1.707 1.707-2.133 4.267-2.133 6.4 11.947 109.227 109.227 221.867 251.307 221.867 7.253 0 14.933 0 23.040-0.853 133.547-11.52 221.013-121.6 228.267-221.44 0-2.133-0.853-4.693-2.133-6.4zM658.773 333.044c0 52.48 41.387 93.867 94.293 93.867 26.027 0 49.493-9.813 67.413-27.733 17.92-18.347 27.733-41.813 27.307-66.987 0-52.053-42.667-94.293-94.72-94.293h-0.853c-25.173 0.427-48.64 10.24-66.56 28.16-17.493 17.92-27.307 41.813-26.88 66.987zM960 10.91c-1.707-2.987-4.267-4.693-7.68-4.693h-351.147c-4.267 0-7.68 2.987-8.533 7.253l-0.853 5.973c-0.427 2.987-0.853 6.4-1.28 9.813-2.133 8.96-4.693 17.92-6.827 27.307-2.56 8.96-4.693 18.347-6.827 27.307-0.853 2.987-2.56 12.373 2.56 19.2 34.987 55.467 103.68 91.733 174.507 91.733 15.36 0 30.293-1.707 44.373-4.693 84.48-19.2 151.467-90.027 162.987-172.8 0-1.707-0.427-4.693-1.28-6.4zM774.4 707.229c0 37.547-26.453 64-64 64.427h-20.48c-4.693 0-8.533 3.84-8.533 8.533v30.72c0 19.627 0.427 39.253 0 58.453-0.427 48.213-32.853 80.64-81.067 80.64h-243.202c-48.213 0-81.067-32.427-81.493-81.067v-220.16c0-15.787 7.68-25.6 19.627-25.6 5.12 0 11.093 1.707 16.64 4.693 27.733 16.213 55.467 32 83.2 47.787 3.84 2.987 8.533 5.12 13.227 5.547h51.202c4.693 0 8.533-3.84 8.533-8.533v-42.24c0.427-39.253 26.88-65.707 65.707-65.707h128.853c8.107 0 14.507-2.56 20.053-5.12 9.387-5.547 18.773-11.093 28.587-16.64 8.96-5.12 18.347-10.667 28.16-16.213 5.12-2.986 10.24-4.266 14.933-4.266 12.373 0 20.053 9.812 20.48 24.746 0 53.333 0 106.667-0.427 160zM405.758 723.869c-7.253 0-15.36-2.133-24.32-6.827-11.947-5.973-23.467-12.373-35.84-19.627l-14.080-8.107c0 0-2.987-1.28-4.267-1.28s-2.987 0.427-4.267 1.28c-2.56 1.28-4.267 4.267-4.267 7.253v173.227c0 23.040 14.080 37.12 36.693 37.12 40.96 0.427 81.922 0.427 122.882 0.427s82.347 0 123.307-0.427c22.613 0 36.693-14.080 36.693-37.12 0.427-35.413 0.427-71.253 0-106.667 0-24.747-14.080-38.827-38.827-38.827h-96.853c-32.427 0-64.427 0-96.855-0.427zM731.733 596.723c0-2.56-1.28-5.12-3.413-6.827-1.707-1.28-3.413-1.707-5.12-1.707-0.853 0-1.707 0-2.56 0-1.707 0.427-6.4 2.133-7.68 3.413-17.493 14.080-38.4 15.787-57.6 15.787h-9.813c-12.373-0.427-24.747-0.427-36.693-0.427s-24.32 0-36.693 0.427h-36.693c-17.493 0-24.32 6.827-24.32 24.32v40.533c0 4.693 3.84 8.533 8.533 8.533h36.693c18.773 0 38.4 0.427 57.173 1.707 23.040 1.28 41.387 12.8 55.040 34.133 5.12 7.68 11.52 11.52 19.627 11.52h22.613c12.373 0 20.907-8.107 20.907-20.053v-111.36z" />
<glyph unicode="&#xe90e;" glyph-name="online-education" data-tags="online-education" d="M0 908.19c0 23.564 19.103 42.667 42.667 42.667h844.8c23.565 0 42.667-19.103 42.667-42.667v-422.4c0-23.565-19.102-42.667-42.667-42.667s-42.667 19.102-42.667 42.667v379.733h-759.467v-853.333h392.533c23.565 0 42.667-19.102 42.667-42.667s-19.102-42.667-42.667-42.667h-435.2c-23.564 0-42.667 19.102-42.667 42.667v938.667zM187.733 720.457c0 23.564 19.102 42.667 42.667 42.667h187.733c23.565 0 42.667-19.103 42.667-42.667s-19.102-42.667-42.667-42.667h-187.733c-23.564 0-42.667 19.103-42.667 42.667zM187.733 532.724c0 23.564 19.102 42.667 42.667 42.667h469.333c23.565 0 42.667-19.102 42.667-42.667s-19.102-42.667-42.667-42.667h-469.333c-23.564 0-42.667 19.102-42.667 42.667zM187.733 344.99c0 23.565 19.102 42.667 42.667 42.667h153.6c23.564 0 42.667-19.102 42.667-42.667s-19.103-42.667-42.667-42.667h-153.6c-23.564 0-42.667 19.102-42.667 42.667zM187.733 157.257c0 23.565 19.102 42.667 42.667 42.667h153.6c23.564 0 42.667-19.102 42.667-42.667s-19.103-42.667-42.667-42.667h-153.6c-23.564 0-42.667 19.102-42.667 42.667zM726.238 390.981c12.732 6.946 28.126 6.946 40.862 0l234.667-128c14.72-8.030 23.373-23.945 22.114-40.666-1.263-16.725-12.203-31.159-27.964-36.89l-57.25-20.817v-109.751c0-15.313-8.205-29.449-21.495-37.043l-149.333-85.333c-13.12-7.497-29.222-7.497-42.338 0l-149.333 85.333c-13.295 7.595-21.5 21.73-21.5 37.043v109.751l-57.246 20.817c-15.761 5.73-26.705 20.164-27.968 36.89-1.259 16.721 7.394 32.636 22.118 40.666l234.667 128zM640 133.577v-53.961l106.667-60.949 106.667 60.949v53.961l-92.083-33.485c-9.421-3.426-19.746-3.426-29.163 0l-92.087 33.485zM615.403 233.323l131.264-47.731 131.264 47.731-131.264 71.599-131.264-71.599z" />
<glyph unicode="&#xe90f;" glyph-name="concierge-bell" data-tags="concierge-bell" d="M384 780.19c0 23.564 19.103 42.667 42.667 42.667h170.667c23.565 0 42.667-19.103 42.667-42.667s-19.102-42.667-42.667-42.667h-42.667v-87.71c86.144-9.629 166.976-48.209 228.864-110.095 63.492-63.495 102.455-146.938 110.784-235.599 18.483-6.246 35.473-16.695 49.527-30.754 24.004-24.004 37.491-56.559 37.491-90.509v-42.667c0-22.63-8.99-44.335-24.994-60.339s-37.709-24.994-60.339-24.994h-768c-22.632 0-44.337 8.99-60.34 24.994s-24.994 37.709-24.994 60.339v42.667c0 33.946 13.486 66.505 37.49 90.509 14.056 14.059 31.044 24.508 49.526 30.754 8.329 88.661 47.292 172.105 110.788 235.599 61.885 61.885 142.717 100.466 228.862 110.095v87.71h-42.667c-23.564 0-42.667 19.103-42.667 42.667zM216.396 310.857h591.208c-9.152 63.437-38.558 122.667-84.416 168.521-56.009 56.013-131.977 87.479-211.187 87.479s-155.178-31.467-211.189-87.479c-45.855-45.854-75.26-105.084-84.415-168.521zM170.667 225.524c-11.316 0-22.168-4.497-30.17-12.497s-12.497-18.854-12.497-30.17v-42.667h768v42.667c0 11.315-4.497 22.17-12.497 30.17s-18.854 12.497-30.17 12.497h-682.667z" />
<glyph unicode="&#xe910;" glyph-name="target" data-tags="target" d="M993.276 463.604c-9.813 14.933-24.747 17.067-37.12 17.067-0.427 3.84-0.853 7.68-1.707 12.373-2.56 16.64-5.12 32.852-8.107 49.492-4.267 20.48-21.76 34.987-43.093 33.28-20.48-1.28-37.12-17.92-38.4-38.4-0.427-5.547 0.427-10.667 1.707-15.359l6.4-42.667c-22.187-4.693-41.813-14.080-40.107-40.533 0-11.947 6.4-21.76 8.96-25.173 8.533-12.373 20.053-15.36 31.147-16.213-11.093-90.453-48.64-164.267-114.347-225.28-57.173-53.333-126.293-84.48-204.8-93.44-2.987 17.92-11.093 40.107-38.4 40.107-11.52-0.427-21.76-5.12-26.453-8.533-12.373-8.107-15.787-19.627-16.64-31.147-162.559 14.507-304.212 156.587-317.865 318.72 0.853 0 1.28 0 2.133 0 21.333 1.707 37.547 19.627 37.547 40.533 0.427 21.76-16.213 40.107-37.973 41.813-0.853 0-1.28 0-2.133 0 15.36 163.839 156.587 305.492 317.865 318.292v-0.427c1.707-22.613 19.627-39.68 41.387-39.68 22.187 0 39.68 17.067 41.387 40.533 6.4-0.853 12.373-2.133 18.347-2.987l26.453-4.693c23.467-4.267 43.947 8.96 49.493 30.72 5.547 21.333-7.253 43.093-29.44 49.92-8.107 2.133-16.64 4.267-25.6 5.547-13.227 2.133-26.027 3.84-39.253 5.547-3.413 23.467-11.52 46.080-40.96 44.8-8.533-0.427-18.347-3.84-25.6-8.96-14.080-9.813-15.787-24.32-15.787-35.84-106.665-11.093-198.825-54.613-273.065-128.853-75.52-75.093-119.040-167.254-129.707-273.492-7.253-0.853-14.507-1.707-21.76-4.693-14.934-5.973-23.894-19.627-23.040-36.267 0.427-13.653 4.693-23.893 12.373-31.147 8.96-8.533 20.907-10.667 32.854-11.093 10.667-107.093 54.186-199.253 128.853-273.92 74.24-74.24 165.974-117.333 273.492-128.427 3.413-23.467 11.52-44.8 38.827-44.8 9.387 0 20.053 3.413 27.733 8.96 14.080 9.813 15.787 24.32 15.787 35.84 107.093 11.093 198.827 54.187 273.067 128.853 74.667 75.093 117.76 167.253 128.427 273.493 7.253 0.853 14.933 2.133 21.76 4.693 15.36 5.973 24.32 20.48 23.040 35.84 0 8.533-2.987 18.347-7.68 25.6zM412.584 583.924c40.532 28.16 89.598 37.547 138.665 27.307 7.253-1.707 13.653-2.56 20.48-1.707 20.053 2.987 34.987 19.627 35.413 39.68 0.427 20.907-12.8 37.547-35.413 42.667-76.8 17.92-157.438 0-219.732-49.493-62.72-49.493-98.56-123.734-98.56-204.374l0.427-6.4c0.853-11.52 1.28-23.467 3.413-34.56 18.773-113.92 111.36-202.667 225.278-215.893 10.24-1.28 20.48-1.707 30.293-1.707 98.133 0 186.88 54.613 231.68 144.64 27.307 54.613 33.707 113.493 19.627 174.933-5.12 23.893-26.88 37.974-49.493 33.28-23.040-4.693-35.84-25.6-31.147-50.347l1.707-8.533c0.853-4.267 1.707-8.96 2.133-13.227 5.547-49.493-8.533-96.853-39.68-133.973-30.72-37.12-75.093-59.307-124.587-62.72-52.48-2.987-102.825 17.067-139.518 55.893-36.693 39.253-53.333 91.733-46.080 143.36 8.107 49.92 34.56 93.014 75.093 121.174zM647.68 716.186c2.987-8.96 5.973-18.347 8.533-27.733 3.413-10.667 6.4-20.907 9.813-31.573 1.28-4.267 1.28-5.12-1.707-7.68-29.44-29.44-58.88-58.453-88.32-87.893s-58.453-58.454-87.893-87.894c-2.987-2.987-5.973-5.973-8.533-9.387-10.24-14.080-11.52-29.867-3.413-44.8 7.253-13.653 19.627-21.76 32.853-21.76 2.56 0 5.12 0.427 7.68 0.853 10.24 1.707 21.333 7.253 29.013 14.933 59.733 59.307 119.467 119.040 181.76 180.054 17.067-5.973 34.133-11.52 51.2-16.213 10.667-2.987 20.907-5.547 29.44-7.253 23.467 0 40.96 6.4 54.613 20.48l23.893 23.893c25.6 25.173 50.773 50.773 75.947 76.373 17.493 18.347 24.32 43.093 18.347 66.56-5.973 23.040-23.893 41.387-47.36 49.067-12.8 4.267-25.6 8.107-41.813 13.227-2.133 8.533-5.12 17.493-7.68 26.027l-3.84 12.8c-8.107 25.6-27.307 44.373-50.773 50.347-23.893 5.547-48.213-1.707-67.413-20.907-21.333-20.907-42.667-42.667-64-64l-32-32c-20.907-20.907-27.307-46.507-18.347-75.52zM728.747 737.093l79.36 75.093c0.427-0.853 0.427-2.133 0.853-2.987l4.693-15.36c7.68-28.587 26.027-46.507 54.613-52.907 7.253-1.707 14.080-3.84 20.907-5.973l-79.787-79.787c-9.813 3.413-19.627 6.4-29.44 9.387-10.667 3.413-21.333 6.4-32.853 11.52-5.547 15.787-10.24 31.573-14.933 47.787l-3.413 13.227z" />
<glyph unicode="&#xe911;" glyph-name="content-marketing" data-tags="content-marketing" d="M1022.293 897.097c-10.667 32.426-31.147 47.786-64.853 47.786h-409.173c-36.693 0-63.573-26.027-63.573-62.72-0.427-89.173-0.427-178.773 0-267.947 0-19.2 7.68-35.413 22.613-48.213 13.227-11.093 28.587-14.080 45.653-14.080h402.773c3.84 0 7.253 0 11.093 0.427 26.453 2.56 43.947 16.64 53.76 41.387 0.853 2.987 2.133 5.973 3.413 8.96v291.84c0 0-1.28 1.707-1.707 2.56zM608.853 596.297c1.707 3.84 2.56 6.4 4.267 8.96 36.267 62.72 72.107 125.867 108.373 188.587 8.533 14.507 14.933 14.507 23.040 0 36.693-62.72 72.96-125.44 109.227-188.16 1.28-2.56 2.56-5.12 4.693-9.387h-249.6zM856.747 688.883c-21.333 36.267-42.24 72.533-63.573 109.653 30.293 21.333 72.107 12.373 91.307-19.627s6.827-73.387-27.733-90.027zM980.053 619.337c0-17.493-5.973-23.467-23.467-23.467-12.373 0-24.747 0.427-37.12 0-6.4-0.427-10.24 1.28-13.653 7.253-8.107 15.36-17.493 30.72-26.88 46.933 25.6 14.507 43.52 34.56 52.907 61.44 14.507 42.667 0.853 89.6-34.133 118.187-34.133 28.16-81.92 32.853-120.747 10.667-6.4-3.413-10.667-3.413-16.64 0.427-26.027 15.787-58.027 6.827-74.24-20.48-26.453-44.8-52.48-90.453-78.507-135.68-15.36-26.88-31.147-53.333-46.507-80.213-2.987-5.973-6.4-9.387-13.653-8.533-8.107 0.853-14.507 3.413-17.067 11.093-1.707 3.84-1.707 8.534-1.707 12.8-0.427 85.76-0.427 171.52-0.427 256.854 0 18.347 5.973 24.32 23.893 24.32h404.053c18.347 0 23.893-5.547 23.893-23.893v-257.707zM958.293 480.67h-402.773c-38.827-0.427-65.28-26.88-65.28-65.28v-404.053c0-37.973 26.453-64.427 64.853-64.853h403.627c32.427 0 54.187 16.64 63.573 47.787 0 1.28 1.28 2.987 1.707 4.267v430.080c-14.507 37.547-32.427 52.053-65.707 52.053zM980.053 15.604c0-19.627-5.547-25.173-25.173-25.173h-395.947c-19.2 0-24.747 5.973-24.747 25.173v395.947c0 19.2 5.547 25.173 25.173 25.173h395.947c19.2 0 24.747-5.973 24.747-25.6v-395.52zM413.867 889.417c0 34.133-26.88 61.013-60.587 61.44-97.707 0-194.987 0-292.267-0.427-23.467 0-41.387-11.093-52.907-31.573-3.413-6.4-5.547-13.227-8.107-20.053v-408.32c17.493-41.387 31.573-50.347 77.227-50.347h81.067c63.573 0 126.72-0.427 189.867 0 38.827 0 65.707 25.173 66.133 61.44 0 129.28 0 258.56-0.427 387.84zM370.347 507.55c0-17.92-5.973-23.467-23.467-23.467h-279.040c-18.347 0-23.893 5.973-23.893 23.893v375.040c0 17.92 5.973 23.893 23.893 23.893h279.040c17.493 0 23.467-5.973 23.467-23.467v-375.893zM426.24 291.235c0.853 46.933-32.853 85.333-84.907 84.48-85.333-1.28-170.667 0-256 0-4.267 0-8.533 0-12.8 0-33.28-2.56-60.16-24.32-69.12-56.32-1.28-3.84-2.133-8.107-3.413-12.373v-238.080c0 0 1.28-1.28 1.28-2.56 9.387-42.667 37.547-65.28 81.493-65.28 30.293 0 60.587 0 90.88-0.427 4.693 0 10.24-2.133 14.080-5.12 14.507-11.947 28.16-24.747 42.24-37.12 13.227-11.52 28.587-14.933 45.653-8.107s26.027 20.053 27.733 37.973c0.427 3.84 0.427 8.107 0.853 12.8 13.653 0 26.453-0.427 39.253 0 5.973 0 11.947 0 17.92 0.853 38.827 7.253 64.427 38.4 64.427 78.933 0 69.973-0.853 140.373 0.427 210.773v-0.427zM381.867 81.315c0-23.467-13.227-36.693-36.693-36.693h-37.973c-29.013-0.427-46.507-17.067-47.787-46.080 0-1.707 0-3.413-0.427-7.253-15.36 13.227-29.44 25.173-42.667 37.547-11.947 11.093-25.173 16.213-41.387 15.787-31.573-0.427-62.72 0-93.867 0-23.467 0-36.693 13.227-36.693 36.693v213.76c0 22.613 13.227 36.267 35.84 36.267 88.32 0.427 177.067 0.427 265.813 0 22.613 0 35.84-13.653 35.84-36.267v-213.76zM826.884 320.675c-26.027 16.64-53.333 32.853-81.067 46.933-37.547 19.2-81.92-8.107-84.053-49.92-0.853-14.933 0-30.293 0-45.227 0-15.787-0.853-31.147 0-46.933 2.133-40.533 45.653-67.84 81.92-49.92 29.44 14.507 57.6 31.147 84.907 49.067 33.707 23.040 32.853 73.813-1.707 96zM798.298 257.101c-22.613-13.227-44.8-26.027-67.413-38.827-14.507-8.107-25.173-1.707-25.6 14.507v79.36c0 10.667 5.973 17.067 17.067 17.067 1.707-0.427 5.12-1.28 8.107-3.413 22.613-12.8 45.227-25.6 67.84-38.827 14.507-8.533 14.507-21.333 0-29.867zM928.853 79.604c0-11.093-7.68-20.053-18.773-21.333-9.813-0.853-19.627 0-29.867 0h-187.733c-5.547 0-8.96-0.427-11.52-6.4-3.413-8.107-10.667-12.373-19.2-11.947-8.533 0-16.213 3.84-19.2 11.947-2.56 5.973-6.4 6.4-11.52 6.4-8.533 0-17.493-0.427-26.027 0-11.947 1.28-19.627 9.813-19.627 21.333s7.253 20.48 19.2 21.76c8.533 0.853 17.067 0.427 26.027 0.427 5.547-0.427 8.96 1.28 11.947 6.827 8.533 15.787 29.867 15.787 37.973 0 3.413-6.4 7.68-6.827 13.227-6.827h204.8c4.267 0 8.107 0 11.947-0.427 11.093-2.133 18.773-11.093 18.347-21.76zM311.040 738.375c-4.267-8.533-11.947-12.8-20.907-12.8-55.467 0-110.933 0-165.973 0.427-14.507 0-23.040 9.387-22.613 22.613 0.427 12.373 9.387 20.48 23.467 20.907 27.307 0.427 54.613 0 81.92 0s55.040 0.427 82.773 0c17.92-0.427 28.16-16.213 21.333-31.147zM312.742 656.032c0-13.227-9.813-21.333-24.747-21.76h-160.853c-15.787 0.427-25.6 8.533-25.6 22.187s9.813 21.76 25.173 21.76c53.76 0.427 107.52 0.427 161.28 0 15.36 0 25.173-8.96 24.747-22.187zM312.742 565.576c0.427-13.653-9.387-22.613-24.747-22.613h-161.28c-15.36 0-25.173 8.533-25.173 22.187s9.813 21.76 25.6 21.76h160.853c14.933 0 24.747-8.533 24.747-21.333zM272.217 839.497c0.427-13.227-9.387-22.187-24.747-22.613h-79.787c-15.36 0-25.6 8.96-25.6 21.76s9.813 22.187 25.173 22.187h79.787c15.36 0 24.747-8.107 25.173-21.333zM139.096 194.804c0.427-11.947-9.813-22.187-22.187-22.187s-21.76 9.813-21.333 22.613c0 11.947 10.24 21.333 21.76 21.333 11.947-0.427 21.76-10.24 21.76-21.76zM235.092 194.804c0-11.947-9.813-22.187-22.187-22.187s-21.76 9.813-21.76 22.613c0.427 11.52 10.24 21.333 22.187 21.333 11.947-0.427 21.333-9.813 21.76-21.76zM330.666 195.23c0.427-12.373-9.387-22.613-21.76-22.613s-21.76 9.813-21.76 22.187c0 12.373 9.813 21.76 21.76 21.76s21.76-9.813 21.76-21.333z" />
<glyph unicode="&#xe912;" glyph-name="dollar-sign" data-tags="dollar-sign" d="M512 950.857c23.565 0 42.667-19.103 42.667-42.667v-938.667c0-23.565-19.102-42.667-42.667-42.667s-42.667 19.102-42.667 42.667v938.667c0 23.564 19.102 42.667 42.667 42.667zM269.569 723.955c36.007 36.007 84.843 56.236 135.764 56.236h320c23.565 0 42.667-19.103 42.667-42.667s-19.102-42.667-42.667-42.667h-320c-28.29 0-55.421-11.238-75.425-31.242s-31.242-47.135-31.242-75.425c0-28.29 11.238-55.421 31.242-75.426 20.004-20.002 47.135-31.241 75.425-31.241h213.333c50.923 0 99.759-20.228 135.765-56.235s56.235-84.843 56.235-135.765c0-50.923-20.228-99.759-56.235-135.765s-84.843-56.235-135.765-56.235h-362.667c-23.564 0-42.667 19.102-42.667 42.667s19.103 42.667 42.667 42.667h362.667c28.288 0 55.42 11.238 75.426 31.241 20.002 20.006 31.241 47.138 31.241 75.426s-11.238 55.42-31.241 75.426c-20.006 20.002-47.138 31.241-75.426 31.241h-213.333c-50.921 0-99.758 20.228-135.764 56.235s-56.236 84.844-56.236 135.765c0 50.921 20.229 99.758 56.236 135.764z" />
<glyph unicode="&#xe913;" glyph-name="website" data-tags="website" d="M1001.391 755.016c0 8.96 0 19.627-1.707 29.013-14.080 86.613-83.2 144.64-171.52 144.64h-630.186c-16.213 0-29.44-1.28-41.813-4.267-78.933-17.92-131.84-85.333-131.84-168.107-0.427-70.4 0-140.373 0-210.773v-419.839c0-10.24 0-21.333 1.707-32 14.080-86.187 83.2-144.213 171.947-144.213 104.96 0 209.92-0.427 314.879-0.427s209.92 0 314.88 0.427c16.213 0 29.44 1.28 41.387 4.267 78.933 17.92 131.84 85.76 131.84 168.96 0.427 140.373 0 281.173 0 421.546l0.427 210.773zM107.098 754.163c0.427 54.613 37.12 91.307 91.307 91.307 209.493 0.427 418.986 0.427 628.906 0 54.187 0 90.88-36.693 91.307-91.307 0-14.080 0-28.16 0-42.24 0-17.92 0-35.84 0-55.467h-811.946c0.427 24.32 0.427 48.64 0.427 72.96v24.747zM919.044 573.683c-0.427-149.332-0.427-298.666-0.427-447.999 0-46.933-25.6-81.067-67.84-90.453-8.107-1.707-16.64-2.56-25.173-2.56h-625.492c-46.933 0-81.067 25.6-90.453 68.267-1.707 8.107-2.56 16.64-2.56 25.173 0 148.053 0 296.96-0.427 447.999l812.372-0.427zM361.387 125.684c50.347-0.427 101.12-0.427 151.466-0.427h149.76c55.467 0.427 93.013 37.973 93.44 93.867v167.253c-0.427 55.893-37.973 93.867-93.867 93.867-99.413 0.427-199.253 0.427-298.666 0-55.893 0-93.44-37.547-93.44-93.867-0.427-55.893-0.427-111.36 0-167.253 0-7.253 0-15.787 2.133-23.467 9.387-42.667 44.373-69.973 89.173-69.973zM352.854 221.684v133.12c14.080-11.093 28.587-21.76 42.667-32.853 18.773-14.507 37.973-29.013 57.173-43.52 40.96-31.147 80.213-30.72 120.747 0.427 32.853 25.173 66.133 50.347 99.413 75.52v-132.693c0-12.8-0.427-13.227-13.227-13.227h-293.12c-13.653 0-13.653 0.427-13.653 13.227zM520.96 343.284c-7.253-5.547-7.68-5.973-16.64 0.427-23.040 17.493-46.080 34.987-69.973 53.333h157.013c-23.467-17.92-46.933-35.84-70.4-53.76zM536.324 709.792c14.507 0 29.013 0 43.52 0s29.013 0 43.093 0h168.107c36.693 0 49.493 21.333 49.493 41.387s-12.8 41.387-49.493 41.387h-249.173c-4.267 0-8.96 0-12.373-0.427-17.067-1.707-29.44-11.947-34.987-28.587-3.84-12.8-1.707-26.453 5.973-36.693 8.107-10.667 20.907-17.067 35.84-17.067zM234.671 709.792c29.867 0 49.067 15.787 49.493 41.387 0 25.173-19.627 41.387-49.493 41.387-36.267 0-49.493-21.333-49.493-41.387 0-25.173 19.627-41.387 49.493-41.387zM357.549 709.787c4.693 0 8.96 0 13.227 0.427 13.653 1.707 24.747 8.96 31.573 20.48 6.4 11.093 7.253 24.747 2.133 36.693-9.387 22.187-29.867 25.173-43.947 25.6h-0.427c-11.947 0-36.693 0-47.787-26.453-2.56-7.253-2.987-15.787-1.707-24.32 2.56-14.933 13.227-32.427 46.933-32.427z" />
<glyph unicode="&#xe914;" glyph-name="worldwide-security" data-tags="worldwide-security" d="M552.107 75.333c-2.987-0.427-5.973-0.849-9.387-1.276-2.56-0.427-5.12-0.853-8.533-1.28-49.92-6.827-99.413-3.413-148.478 10.24-9.387 51.2 0.853 89.173 32 119.889 10.665 10.667 22.185 20.907 34.132 32.427 30.72 29.444 44.8 64.431 41.387 104.111l-0.853 6.4c-1.707 14.507-2.987 29.867-6.827 45.227-13.227 56.32-40.107 101.12-80.212 132.693-43.093 34.131-91.307 37.971-138.24 11.518-12.373-6.827-23.894-15.789-35.414-24.322l-9.813-7.676c-4.693-3.413-8.96-7.253-13.227-10.667-7.253-5.973-14.080-11.951-22.187-17.067-20.48-13.653-35.84-13.231-53.333 1.707-8.107 6.822-14.933 15.36-22.613 23.893-4.266 4.693-8.533 9.813-12.8 14.507-3.413 3.84-5.12 8.107-3.413 17.491 34.987 164.693 133.973 271.787 293.973 318.293 30.293 8.96 62.718 13.227 98.558 12.373-9.813-34.56-13.653-65.28-12.373-96.427 2.133-48.213 18.347-88.32 48.64-120.32 35.84-36.693 81.92-43.52 126.293-19.627 8.107 4.267 15.787 9.387 23.467 14.507 5.547 3.413 10.667 6.827 16.213 10.24 8.107 5.12 17.067 9.813 26.027 13.227 12.373 4.693 22.187 4.267 30.72-1.707 29.44-20.053 63.147-30.72 98.987-31.573 5.547-11.52 10.667-23.893 14.933-35.84 18.347-53.76 25.173-107.945 20.053-162.131-1.28-13.653 2.56-26.453 10.667-35.84 7.253-8.533 17.92-13.227 29.013-14.080 12.373-0.853 23.040 2.56 31.573 9.813 8.96 7.68 14.507 20.049 15.36 33.276 0.853 8.96 1.28 17.071 1.707 26.031 1.707 84.051-17.067 164.691-55.893 239.358-107.52 206.933-352.427 308.053-570.452 235.093-190.294-63.147-302.934-196.693-334.080-396.373-16.64-104.958 2.133-206.505 56.746-301.651 75.52-130.56 188.587-210.773 336.214-238.933 27.305-5.124 55.465-8.111 84.052-8.111 26.027 0 52.907 2.133 80.213 6.4 24.747 4.698 41.387 26.458 37.547 49.498-3.413 24.747-25.173 40.533-50.347 36.689zM406.615 334.75c2.133-12.8-2.133-24.32-13.227-34.56-6.4-5.973-12.373-11.52-18.347-17.493l-9.387-9.387c-46.507-42.244-69.547-95.151-69.547-155.738-91.307 41.387-191.573 181.76-202.666 281.604 43.52-26.884 89.173-27.307 130.987-2.133 13.653 7.68 26.026 17.489 37.546 26.88 5.12 4.267 10.667 8.529 16.213 12.369l9.387 7.258c5.973 4.689 11.947 9.387 17.493 13.227 19.2 11.947 33.707 10.667 50.774-4.693 17.493-15.36 29.867-34.133 36.693-55.467 6.826-18.347 10.24-39.68 14.080-61.867zM760.747 751.175c-31.573 8.533-64.853 3.84-99.84-14.507-10.24-5.973-20.48-12.373-30.293-19.2l-14.080-9.387c-18.347-11.093-24.747-10.24-37.973 7.68-14.933 20.907-20.053 46.507-16.213 80.64 2.133 15.787 5.973 31.573 9.813 48.64l1.707 8.533c72.96-17.92 134.827-51.627 186.88-102.4zM972.378 320.239c-32 15.36-63.573 31.573-95.147 47.36l-34.56 17.493c-26.453 13.227-53.333 13.227-79.787-0.427l-133.547-67.84c-31.147-15.787-47.36-42.24-46.080-76.8 0.427-38.827 6.4-77.653 17.92-114.773 26.88-90.453 77.653-151.467 155.307-187.733 15.36-6.827 31.147-10.667 46.933-10.667s31.147 3.413 46.933 10.667c47.36 21.76 85.76 54.187 113.92 96.427 36.267 55.040 55.040 119.893 60.587 209.493 1.707 31.147-17.92 59.307-52.48 76.8zM937.391 239.173c0 0 0-0.427-0.427-1.28l-0.853-3.84c-5.547-70.4-21.76-119.893-52.907-160.853-17.92-23.893-40.96-42.667-68.693-55.467-7.68-3.413-14.080-3.413-22.613 0.427-51.627 23.893-86.613 66.133-107.093 129.707-8.96 27.733-14.080 58.453-15.36 93.013l3.84 2.133c42.667 20.907 84.907 42.24 126.72 63.573 1.707 0.853 2.56 1.28 2.987 1.28 0.853 0 1.28-0.427 2.56-0.853 40.533-20.907 81.493-41.387 122.453-61.013 8.107-4.693 9.387-6.827 9.387-6.827z" />
<glyph unicode="&#xe915;" glyph-name="educational-programs" data-tags="educational-programs" d="M1015.735 165.385c-6.665 12.732-8.414 26.095-8.154 40.388 0.597 32.269 0.226 64.542 0.188 96.815-0.038 18.202-5.065 25.088-22.558 30.298-111.334 33.353-222.703 66.667-334.148 99.61-6.665 1.971-14.814 2.569-21.367 0.67-113.045-33.387-225.979-67.226-338.913-101.060-12.954-3.908-19.393-12.173-19.356-23.488 0-11.166 6.551-19.392 19.393-23.488 12.358-3.942 24.828-7.407 37.26-11.127 27.582-8.265 55.127-16.563 83.081-24.939v-11.652c0-73.515 0-147.029 0.038-220.544 0-19.729 6.030-27.324 25.272-30.451 29.184-4.727 58.33-10.125 87.697-13.248 106.197-11.43 211.874-7.407 316.804 12.915 21.069 4.096 26.803 10.906 26.803 32.384 0.034 45.931 0.073 91.827-0.038 137.724 0 4.617-0.448 9.306-1.417 13.845-1.749 8.525-7.296 13.961-15.556 16.418-16.567 4.911-30.263-6.327-30.374-25.348-0.226-39.906-0.077-79.846-0.077-119.748v-11.093c-121.084-21.214-240.943-21.291-360.725-0.111v204.356c2.53-0.708 4.13-1.118 5.658-1.604 53.491-15.927 106.829-32.196 160.503-47.531 8.414-2.385 18.688-2.53 27.063-0.077 74.295 21.589 148.331 44.036 222.481 66.185 27.917 8.337 55.906 16.602 84.868 25.199 0-17.011-0.559-32.943 0.111-48.836 1.152-26.167 0.188-51.776-13.551-75.153-0.67-1.118-0.819-2.53-1.229-3.797-3.2-9.865-1.19-18.65 6.515-25.459 7.966-7.074 17.161-7.855 26.914-3.238 2.342 1.118 5.73 2.010 7.927 1.19 19.243-7.334 28.177-3.836 37.15 15.040v9.975c-2.718 6.362-5.065 12.915-8.265 18.982zM887.987 304.67c-80.107-23.932-160.209-47.902-240.384-71.616-4.467-1.34-9.941-1.822-14.332-0.559-82.411 24.346-164.71 49.024-247.049 73.664-1.824 0.525-3.573 1.417-7.147 2.906 32.123 9.566 62.499 18.611 92.835 27.695 53.077 15.817 106.159 31.748 159.313 47.42 4.241 1.229 9.378 2.121 13.474 0.93 83.678-24.751 167.241-49.839 250.807-74.893 0.858-0.222 1.6-0.704 3.537-1.6-4.356-1.562-7.633-2.901-11.055-3.947zM867.627 467.448c0-6.703-1.489-13.999-4.356-20.028-4.058-8.525-12.429-11.874-21.7-10.867-9.638 1.079-16.896 6.362-19.58 16.004-1.374 5.026-1.6 10.496-1.6 15.744-0.111 123.097-0.073 246.156-0.073 369.252v13.065c-9.715-2.903-18.577-5.472-27.358-8.226-108.058-33.724-216.119-67.597-324.288-101.097-7.667-2.345-10.197-5.509-10.159-13.698 0.333-82.486 0.26-164.972 0.111-247.494-0.038-6.178-0.781-12.732-2.94-18.462-3.277-8.713-13.773-14.221-22.524-13.363-10.123 1.003-18.275 7.556-20.694 17.455-1.079 4.433-1.265 9.195-1.265 13.811-0.074 83.825-0.149 167.651 0.112 251.477 0.037 6.998-2.196 9.752-8.636 11.762-114.758 35.66-229.479 71.58-344.237 107.388-2.494 0.782-5.062 1.266-8.859 2.196v-11.279c0-197.616 0.074-395.197-0.224-592.812 0-8.858 2.494-12.284 11.055-14.925 91.084-28.028 181.982-56.58 272.918-85.056 4.727-1.489 9.529-3.089 13.847-5.47 10.385-5.658 14.703-17.382 10.832-28.066-3.983-11.166-15.373-18.167-27.024-14.814-29.964 8.67-59.743 18.052-89.521 27.358-71.654 22.298-143.27 44.74-214.887 67.11-20.138 6.293-24.567 12.173-24.567 32.905v650.657c0 26.019 12.879 35.399 37.818 27.619 129.945-40.61 259.89-81.295 389.91-121.607 5.248-1.638 11.874-1.563 17.122 0.074 127.787 39.642 255.497 79.62 383.245 119.523 24.717 7.705 37.67-1.861 37.67-27.954 0.038-136.087 0.073-272.136-0.149-408.184zM318.557 644.552c-1.042-16.304-14.703-26.242-30.97-21.366-34.059 10.125-67.894 20.919-101.73 31.602-10.758 3.387-21.701 6.477-31.9 11.092-9.938 4.504-14.145 16.043-11.204 26.167 2.941 10.311 12.358 17.346 24.567 17.197 1.675-0.372 4.988-0.819 8.151-1.787 41.206-12.768 82.412-25.498 123.58-38.451 13.14-4.169 20.175-13.475 19.505-24.455zM707.823 662.197c-41.092-13.065-82.261-25.944-123.541-38.563-18.052-5.509-33.126 4.653-33.237 21.626-0.077 11.279 6.81 19.654 20.245 23.934 25.946 8.226 51.964 16.192 77.909 24.306 14.925 4.616 29.743 9.455 44.706 13.884 15.556 4.616 28.476-1.117 32.644-14.070 4.352-13.661-2.756-26.019-18.726-31.118zM317.925 529.98c-2.159-11.132-11.13-18.5-24.641-18.65-1.526 0.337-5.174 0.858-8.636 1.899-40.871 12.694-81.779 25.35-122.575 38.266-18.202 5.77-25.051 20.622-16.825 35.25 4.69 8.375 11.948 12.172 21.403 11.539 3.61-0.261 7.258-1.042 10.72-2.084 39.94-12.358 79.88-24.716 119.746-37.26 16.416-5.174 23.488-15.299 20.808-28.959zM708.907 551.83c-15.744-5.174-31.676-9.864-47.497-14.815-24.38-7.631-48.764-15.334-73.143-22.89-4.429-1.378-8.969-2.197-11.426-2.795-13.141-0.038-22.298 6.848-25.088 17.198-2.718 10.199 1.788 21.068 11.238 26.353 2.867 1.601 5.956 2.903 9.122 3.871 40.201 12.619 80.401 25.237 120.674 37.632 18.871 5.807 33.131-2.457 34.654-19.542 1.007-11.39-5.619-20.733-18.534-25.014zM253.563 439.309c0.074-17.941-13.959-29.257-29.964-24.828-21.961 6.106-43.774 13.026-65.326 20.51-12.991 4.501-18.909 16.636-15.559 28.437 3.499 12.173 14.443 19.767 27.805 16.23 23.302-6.178 46.231-13.811 69.123-21.517 9.343-3.162 13.4-11.204 13.921-18.833z" />
<glyph unicode="&#xe916;" glyph-name="online-class" data-tags="online-class" d="M897.28 503.715c-24.747 0-41.813-19.627-41.813-47.787v-323.84c0-33.707-20.053-54.187-53.76-54.187h-640c-34.56 0-54.613 20.053-54.613 54.613v373.333h407.040c4.693 0 9.387 0 14.080 0.427 11.52 1.28 22.187 7.253 28.587 16.64 7.253 9.812 9.387 22.186 6.827 34.132-5.547 20.907-21.333 31.573-46.933 31.573h-409.6v66.133c0 34.133 19.627 53.76 53.76 53.76h340.48c23.467 0 34.987 12.373 40.533 22.613 6.827 13.227 6.4 27.307-0.853 39.253-8.107 13.227-23.040 20.907-40.533 20.907-113.92 0.427-228.267 0.427-342.187 0-76.373 0-133.973-57.173-133.973-133.12-0.427-177.066-0.427-353.706 0-530.346 0-75.947 57.6-133.547 133.973-133.547h645.973c76.8 0 134.4 58.027 134.4 135.253 0.427 72.533 0 145.067 0 217.6v108.373c0 29.013-16.64 48.213-41.387 48.213zM906.236 883.445h-238.933c-52.48-0.427-90.88-37.547-92.16-88.32-0.427-58.453-0.427-116.907 0-175.787 0.427-42.667 30.72-77.653 73.387-85.333 9.813-1.707 24.32-3.84 38.4-1.28 24.747 2.987 41.387-3.413 53.76-20.482l4.267-5.547c12.373-12.373 27.733-18.347 42.667-18.347s29.867 5.973 42.24 18.347c3.84 3.413 7.253 7.253 11.093 11.093 3.84 4.267 8.107 8.535 11.093 11.522 2.133 1.707 4.267 2.56 5.973 2.56 11.947 0.853 23.893 0.427 35.84 0.427h11.947c56.747 0 94.72 37.973 94.72 94.72 0.427 53.76 0.427 107.52 0 161.28 0.853 56.32-37.12 94.72-94.293 95.147zM908.369 615.925c-22.187-0.427-43.52-0.427-65.707 0-14.507 0-26.88-5.12-36.693-15.36-5.973-6.4-11.947-11.947-17.92-17.92-5.547 5.547-11.093 10.667-16.213 16.213-10.667 11.52-23.893 17.493-40.533 17.493-21.333-0.427-42.24-0.427-63.573 0-8.96 0-9.387 2.987-9.387 8.107-0.427 55.893-0.427 111.36 0 167.253 0 6.4 1.28 8.533 8.96 8.533 80.64 0.427 161.28 0.427 241.067 0.427 8.107-0.427 9.813-2.133 10.24-9.813v-165.973c0-6.4-0.427-8.96-10.24-8.96zM585.818 421.79c-52.907 53.76-137.387 58.453-195.839 11.52-29.013-23.040-46.933-53.333-53.333-89.173-7.68-44.8 3.84-85.76 33.707-121.173-13.653-8.96-27.733-20.48-38.827-37.12-14.080-21.333-10.24-46.080 9.387-59.733 18.347-12.8 40.96-8.533 57.6 10.667 8.96 9.813 18.773 17.92 28.159 23.040 14.080 8.107 32 11.52 54.187 11.52 42.24-0.427 67.84-11.52 86.187-36.693 7.253-10.24 18.347-15.787 30.72-15.787 3.413 0 6.827 0.427 10.24 1.28 13.227 2.987 23.467 11.947 28.587 23.893 5.12 12.373 4.267 26.88-3.413 39.253-11.093 17.92-26.453 30.72-40.533 40.107 54.613 65.28 40.96 150.613-6.827 198.4zM545.284 318.11c-0.427-34.987-29.013-63.573-63.573-63.573-35.413 0-63.999 29.013-63.999 64.427 0.427 34.987 29.012 63.147 63.572 63.147 17.067 0 33.28-6.827 45.653-19.2 11.947-11.947 18.347-27.733 18.347-44.8zM154.883 649.634c-0.427-10.24 3.84-20.053 11.52-27.733 7.253-7.253 16.64-11.093 26.027-11.093 21.76-0.427 38.827 16.64 39.253 37.547 0.427 10.24-3.413 19.627-10.667 27.307-7.68 7.68-17.92 11.947-28.16 11.947-20.48 0-37.973-17.493-37.973-37.973zM245.331 649.634c-0.427-10.24 3.84-20.48 11.52-27.733 7.253-7.253 16.64-11.093 26.027-11.093 21.76 0.427 38.827 16.64 39.253 37.973 0 21.333-17.493 38.827-38.827 38.827-20.48 0-37.973-17.067-37.973-37.973zM335.782 650.483c-0.427-10.667 3.413-20.48 10.667-28.16s17.067-11.52 27.733-11.52c20.907 0 37.973 17.067 37.973 37.973 0 21.333-15.787 37.973-37.12 38.827-20.48 1.28-38.4-16.213-39.253-37.12zM715.098 739.661c-8.533 0.853-17.067-2.987-23.040-9.387-6.4-6.4-9.813-14.933-9.387-23.040 0-17.067 14.507-31.147 32-31.147s31.147 13.227 32 31.573c-0.427 17.493-14.507 32-31.573 32zM788.053 739.659c-17.493 0-31.573-14.507-31.573-32s14.080-31.573 31.147-31.573c0.427 0 0.853 0 1.28 0 8.107 0 15.787 2.987 21.76 8.533s9.813 13.653 9.813 22.187c0.427 8.96-2.987 17.493-9.387 23.893-5.973 5.973-14.080 8.96-23.040 8.96zM863.573 739.66c-8.533 0.853-16.64-2.987-22.613-8.533-5.973-5.973-9.387-14.080-9.387-21.76-0.427-8.533 2.56-16.64 8.107-23.040 5.547-5.973 13.653-9.813 22.187-10.24 0.427 0 0.853 0 1.28 0 8.533 0 16.64 2.987 22.613 8.96s9.387 14.080 9.387 22.187c0.427 8.533-2.987 16.64-8.533 22.613-6.4 6.4-14.933 9.813-23.040 9.813z" />
<glyph unicode="&#xe917;" glyph-name="monitor" data-tags="monitor" d="M170.667 780.19c-23.564 0-42.667-19.103-42.667-42.667v-426.667c0-23.565 19.103-42.667 42.667-42.667h682.667c23.565 0 42.667 19.102 42.667 42.667v426.667c0 23.564-19.102 42.667-42.667 42.667h-682.667zM42.667 737.524c0 70.692 57.308 128 128 128h682.667c70.694 0 128-57.308 128-128v-426.667c0-70.694-57.306-128-128-128h-682.667c-70.692 0-128 57.306-128 128v426.667zM298.667 54.857c0 23.565 19.103 42.667 42.667 42.667h341.333c23.565 0 42.667-19.102 42.667-42.667s-19.102-42.667-42.667-42.667h-341.333c-23.564 0-42.667 19.102-42.667 42.667zM512 268.19c23.565 0 42.667-19.102 42.667-42.667v-170.667c0-23.565-19.102-42.667-42.667-42.667s-42.667 19.102-42.667 42.667v170.667c0 23.565 19.102 42.667 42.667 42.667z" />
<glyph unicode="&#xe918;" glyph-name="lucide" data-tags="lucide" d="M512 14.784c-46.933 0-89.6 8.533-132.267 25.6s-76.8 42.667-110.933 72.533c-29.867 29.867-55.467 68.267-72.533 110.933s-25.6 85.333-25.6 132.267c0 46.933 21.333 115.2 51.2 153.6 12.8 12.8 29.867 21.332 46.933 12.8 17.067-4.267 29.867-21.333 29.867-38.4s8.533-34.133 17.067-46.933c25.6-25.6 68.267-25.6 89.6 0s17.067 29.867 17.067 46.933c0 38.4-8.533 55.465-25.6 85.332 0 8.533-8.533 17.067-12.8 21.333-51.2 106.667-21.333 204.8 93.867 307.2 12.8 8.533 25.6 12.8 42.667 8.533 12.8-4.267 25.6-17.067 29.867-34.133 17.067-93.867 76.8-187.733 153.6-251.733 93.867-76.8 145.067-166.399 145.067-268.799s-8.533-89.6-25.6-132.267c-17.067-42.667-42.667-76.8-72.533-110.933-29.867-29.867-68.267-55.467-110.933-72.533s-85.333-25.6-132.267-25.6l4.267 4.267zM256 377.451c0-8.533 0-12.8 0-21.333 0-34.133 8.533-68.267 21.333-98.133s29.867-59.733 55.467-81.067c25.6-25.6 51.2-42.667 81.067-55.467 64-25.6 132.267-25.6 196.267 0 29.867 12.8 59.733 29.867 81.067 55.467 25.6 25.6 42.667 51.2 55.467 81.067s21.333 64 21.333 98.133c0 72.533-38.4 140.8-110.933 200.532s-132.267 140.8-166.4 230.4c-55.467-68.267-46.933-115.2-25.6-153.6 0-8.533 8.533-12.8 12.8-21.333 17.067-34.133 34.133-68.267 34.133-127.999s-17.067-76.8-42.667-106.667c-55.467-55.467-153.6-55.467-209.067 0h-4.267z" />
<glyph unicode="&#xe919;" glyph-name="ebook" data-tags="ebook" d="M921.173-73.143h-263.68c-9.813 0-19.2 3.413-26.453 9.387-13.227 10.667-129.707 105.813-147.2 204.8-1.28 6.827-2.987 13.227-4.267 19.2-6.827 27.307-15.787 65.28 11.947 102.827 34.133 46.080 94.293 31.573 145.493 6.4v102.4c0 0 0 3.84 0 5.547 2.987 20.907 20.907 126.293 97.28 126.293s94.293-105.387 97.28-126.293c0-1.707 0-3.84 0-5.547v-90.027c51.2-1.28 128-12.373 166.827-62.72 68.693-89.173-22.613-242.773-41.813-272.64-7.68-12.373-21.333-19.627-35.84-19.627h0.427zM673.28 12.19h223.573c29.867 54.187 55.040 128 34.56 154.88-19.627 25.6-94.293 32-138.24 28.16-11.947-1.28-23.893 2.987-32.427 11.093-8.96 8.107-14.080 19.627-14.080 31.573v130.987c-2.133 14.507-7.253 30.72-12.373 41.387-5.12-10.667-9.813-26.88-12.373-41.387v-175.787c0-16.213-8.96-30.72-23.467-37.973-14.080-7.253-31.573-5.973-44.373 3.413-34.133 24.747-77.653 46.507-96.427 48.64-0.427-4.267 0.427-11.093 4.267-26.88 1.707-7.68 3.84-15.787 5.547-24.32 8.96-50.347 72.107-114.773 105.387-143.787h0.427zM481.707-73.143h-439.040c-23.467 0-42.667 19.2-42.667 42.667v938.667c0 23.467 19.2 42.667 42.667 42.667h834.56c23.467 0 42.667-19.2 42.667-42.667v-447.147c0-23.467-19.2-42.667-42.667-42.667s-42.667 19.2-42.667 42.667v404.48h-749.227v-853.333h396.373c23.467 0 42.667-19.2 42.667-42.667s-19.2-42.667-42.667-42.667zM441.6 422.644h-175.787c-23.467 0-42.667 19.2-42.667 42.667s19.2 42.667 42.667 42.667h175.787c23.467 0 42.667-19.2 42.667-42.667s-19.2-42.667-42.667-42.667zM573.44 619.764h-307.627c-23.467 0-42.667 19.2-42.667 42.667s19.2 42.667 42.667 42.667h307.627c23.467 0 42.667-19.2 42.667-42.667s-19.2-42.667-42.667-42.667z" />
<glyph unicode="&#xe91a;" glyph-name="layers" data-tags="layers" d="M492.919 903.686c12.011 6.006 26.15 6.006 38.161 0l426.667-213.333c14.455-7.227 23.586-22.001 23.586-38.162s-9.131-30.935-23.586-38.162l-426.667-213.332c-12.011-6.007-26.15-6.007-38.161 0l-426.667 213.332c-14.455 7.227-23.586 22.001-23.586 38.162s9.131 30.935 23.586 38.162l426.667 213.333zM180.739 652.19l331.261-165.632 331.26 165.632-331.26 165.631-331.261-165.631zM47.17 244.604c10.538 21.077 36.167 29.619 57.243 19.085l407.587-203.793 407.586 203.793c21.073 10.534 46.703 1.993 57.242-19.085 10.539-21.073 1.997-46.703-19.081-57.242l-426.667-213.333c-12.011-6.007-26.15-6.007-38.161 0l-426.668 213.333c-21.076 10.539-29.619 36.169-19.081 57.242zM47.17 457.938c10.538 21.077 36.167 29.619 57.243 19.085l407.587-203.793 407.586 203.793c21.073 10.534 46.703 1.993 57.242-19.085 10.539-21.073 1.997-46.703-19.081-57.242l-426.667-213.333c-12.011-6.007-26.15-6.007-38.161 0l-426.668 213.333c-21.076 10.539-29.619 36.169-19.081 57.242z" />
<glyph unicode="&#xe91b;" glyph-name="map-pin, map-marker" data-tags="map-pin, map-marker" d="M938.667 512c0 117.803-47.787 224.555-124.971 301.696s-183.893 124.971-301.696 124.971-224.555-47.787-301.696-124.971-124.971-183.893-124.971-301.696c0-24.277 2.261-48.128 6.4-71.509 11.691-66.048 38.357-128.171 71.765-184.32 116.565-195.883 324.821-334.336 324.821-334.336 14.123-9.259 32.64-9.771 47.317 0 0 0 208.299 138.453 324.821 334.336 33.408 56.149 60.075 118.272 71.765 184.32 4.181 23.381 6.443 47.232 6.443 71.509zM853.333 512c0-18.944-1.749-37.845-5.077-56.661-9.429-53.333-31.445-105.728-61.099-155.563-81.579-137.131-214.869-245.205-271.744-287.573-59.648 39.083-195.755 148.352-278.613 287.573-29.653 49.835-51.669 102.229-61.099 155.563-3.285 18.816-5.035 37.717-5.035 56.661 0 94.251 38.144 179.541 99.968 241.365s147.115 99.968 241.365 99.968 179.541-38.144 241.365-99.968 99.968-147.115 99.968-241.365zM682.667 512c0 47.104-19.157 89.856-50.005 120.661s-73.557 50.005-120.661 50.005-89.856-19.157-120.661-50.005-50.005-73.557-50.005-120.661 19.157-89.856 50.005-120.661 73.557-50.005 120.661-50.005 89.856 19.157 120.661 50.005 50.005 73.557 50.005 120.661zM597.333 512c0-23.595-9.515-44.843-25.003-60.331s-36.736-25.003-60.331-25.003-44.843 9.515-60.331 25.003-25.003 36.736-25.003 60.331 9.515 44.843 25.003 60.331 36.736 25.003 60.331 25.003 44.843-9.515 60.331-25.003 25.003-36.736 25.003-60.331z" />
<glyph unicode="&#xe91c;" glyph-name="filter" data-tags="filter" d="M46.63 840.815c6.991 15.068 22.092 24.709 38.703 24.709h853.333c16.61 0 31.714-9.641 38.703-24.709 6.993-15.069 4.604-32.825-6.123-45.509l-331.247-391.696v-348.753c0-14.788-7.654-28.518-20.237-36.297-12.578-7.774-28.284-8.478-41.51-1.865l-170.667 85.333c-14.455 7.228-23.586 21.999-23.586 38.161v263.42l-331.246 391.696c-10.726 12.684-13.116 30.44-6.124 45.509zM177.294 780.19l281.953-333.41c6.511-7.701 10.086-17.463 10.086-27.55v-252.672l85.333-42.667v295.339c0 10.086 3.575 19.849 10.086 27.55l281.954 333.41h-669.414z" />
<glyph unicode="&#xe91d;" glyph-name="in_progress_course" data-tags="in_progress_course" horiz-adv-x="1056" d="M0 908.19c0 23.564 19.103 42.667 42.667 42.667h844.799c23.565 0 42.669-19.103 42.669-42.667v-337.068c0-23.562-19.104-42.666-42.669-42.666-23.562 0-42.666 19.104-42.666 42.666v294.401h-759.467v-853.332h307.201c23.562 0 42.666-19.104 42.666-42.669 0-23.562-19.104-42.666-42.666-42.666h-349.868c-23.564 0-42.667 19.104-42.667 42.666v938.668zM187.733 720.457c0 23.564 19.102 42.667 42.667 42.667h230.4c23.565 0 42.666-19.102 42.666-42.667s-19.101-42.667-42.666-42.667h-230.4c-23.564 0-42.667 19.102-42.667 42.667zM187.733 532.723c0 23.565 19.102 42.669 42.667 42.669h469.334c23.562 0 42.666-19.104 42.666-42.669 0-23.562-19.104-42.666-42.666-42.666h-469.334c-23.564 0-42.667 19.104-42.667 42.666zM187.733 344.991c0 23.562 19.102 42.666 42.667 42.666h153.6c23.565 0 42.666-19.104 42.666-42.666 0-23.565-19.101-42.669-42.666-42.669h-153.6c-23.564 0-42.667 19.104-42.667 42.669zM187.733 157.257c0 23.565 19.102 42.666 42.667 42.666h153.6c23.565 0 42.666-19.101 42.666-42.666s-19.101-42.666-42.666-42.666h-153.6c-23.564 0-42.667 19.101-42.667 42.666zM768 353.523c-94.256 0-170.666-76.41-170.666-170.666s76.41-170.666 170.666-170.666c94.256 0 170.666 76.41 170.666 170.666s-76.41 170.666-170.666 170.666zM810.666 209.225l61.75-30.874c21.075-10.538 29.619-36.166 19.078-57.242-10.538-21.078-36.166-29.619-57.242-19.082l-85.334 42.666c-14.454 7.229-23.584 22.003-23.584 38.163v128c0 23.565 19.101 42.666 42.666 42.666s42.666-19.101 42.666-42.666v-101.632zM512 182.857c0 141.386 114.614 256 256 256s256-114.614 256-256c0-141.386-114.614-256-256-256s-256 114.614-256 256z" />
<glyph unicode="&#xe91e;" glyph-name="finished_courses" data-tags="finished_courses" d="M0 908.19c0 23.564 19.103 42.667 42.667 42.667h844.799c23.565 0 42.669-19.103 42.669-42.667v-294.399c0-23.565-19.104-42.669-42.669-42.669-23.562 0-42.666 19.104-42.666 42.669v251.732h-759.467v-853.332h307.201c23.562 0 42.666-19.104 42.666-42.669 0-23.562-19.104-42.666-42.666-42.666h-349.868c-23.564 0-42.667 19.104-42.667 42.666v938.668zM187.733 720.457c0 23.564 19.102 42.667 42.667 42.667h230.4c23.565 0 42.666-19.102 42.666-42.667s-19.101-42.667-42.666-42.667h-230.4c-23.564 0-42.667 19.102-42.667 42.667zM187.733 532.723c0 23.565 19.102 42.669 42.667 42.669h384c23.565 0 42.666-19.104 42.666-42.669 0-23.562-19.101-42.666-42.666-42.666h-384c-23.564 0-42.667 19.104-42.667 42.666zM187.733 344.991c0 23.562 19.102 42.666 42.667 42.666h153.6c23.565 0 42.666-19.104 42.666-42.666 0-23.565-19.101-42.669-42.666-42.669h-153.6c-23.564 0-42.667 19.104-42.667 42.669zM187.733 157.257c0 23.565 19.102 42.666 42.667 42.666h153.6c23.565 0 42.666-19.101 42.666-42.666s-19.101-42.666-42.666-42.666h-153.6c-23.564 0-42.667 19.101-42.667 42.666zM832 438.857c-58.909 0-106.666-47.757-106.666-106.669 0-29.856 12.208-56.781 32.016-76.192 19.283-18.896 45.571-30.474 74.65-30.474s55.366 11.578 74.65 30.474c19.808 19.411 32.016 46.336 32.016 76.192 0 58.912-47.757 106.669-106.666 106.669zM640 332.188c0 106.038 85.962 192 192 192s192-85.962 192-192c0-46.848-16.822-89.824-44.682-123.133l2.013-239.174c0.131-15.434-8.086-29.738-21.488-37.398-13.398-7.661-29.891-7.488-43.13 0.454l-84.714 50.829-84.714-50.829c-13.238-7.942-29.731-8.115-43.13-0.454-13.402 7.661-21.619 21.965-21.488 37.398l2.013 239.174c-27.859 33.309-44.682 76.285-44.682 123.133zM769.526 150.595l-0.886-105.331 41.408 24.845c13.51 8.109 30.394 8.109 43.904 0l41.408-24.845-0.886 105.331c-19.59-6.742-40.611-10.406-62.474-10.406s-42.883 3.664-62.474 10.406z" />
<glyph unicode="&#xe91f;" glyph-name="failed_courses" data-tags="failed_courses" d="M0 908.19c0 23.564 19.103 42.667 42.667 42.667h844.799c23.565 0 42.669-19.103 42.669-42.667v-294.399c0-23.565-19.104-42.669-42.669-42.669-23.562 0-42.666 19.104-42.666 42.669v251.732h-759.467v-853.332h307.201c23.562 0 42.666-19.104 42.666-42.669 0-23.562-19.104-42.666-42.666-42.666h-349.868c-23.564 0-42.667 19.104-42.667 42.666v938.668zM187.733 720.457c0 23.564 19.102 42.667 42.667 42.667h230.4c23.565 0 42.666-19.102 42.666-42.667s-19.101-42.667-42.666-42.667h-230.4c-23.564 0-42.667 19.102-42.667 42.667zM187.733 532.723c0 23.565 19.102 42.669 42.667 42.669h469.334c23.562 0 42.666-19.104 42.666-42.669 0-23.562-19.104-42.666-42.666-42.666h-469.334c-23.564 0-42.667 19.104-42.667 42.666zM187.733 344.991c0 23.562 19.102 42.666 42.667 42.666h153.6c23.565 0 42.666-19.104 42.666-42.666 0-23.565-19.101-42.669-42.666-42.669h-153.6c-23.564 0-42.667 19.104-42.667 42.669zM187.733 157.257c0 23.565 19.102 42.666 42.667 42.666h153.6c23.565 0 42.666-19.101 42.666-42.666s-19.101-42.666-42.666-42.666h-153.6c-23.564 0-42.667 19.101-42.667 42.666zM608.576 342.278c14.995 14.995 39.309 14.995 54.304 0l143.514-143.514 143.514 143.514c14.998 14.995 39.312 14.995 54.307 0s14.995-39.309 0-54.307l-143.514-143.514 143.514-143.514c14.995-14.995 14.995-39.309 0-54.304-14.995-14.998-39.309-14.998-54.307 0l-143.514 143.514-143.514-143.514c-14.995-14.998-39.309-14.998-54.304 0-14.998 14.995-14.998 39.309 0 54.304l143.514 143.514-143.514 143.514c-14.998 14.998-14.998 39.312 0 54.307z" />
<glyph unicode="&#xe920;" glyph-name="passed_courses" data-tags="passed_courses" d="M0 908.19c0 23.564 19.103 42.667 42.667 42.667h844.799c23.565 0 42.669-19.103 42.669-42.667v-294.399c0-23.565-19.104-42.669-42.669-42.669-23.562 0-42.666 19.104-42.666 42.669v251.732h-759.467v-853.332h264.532c23.565 0 42.669-19.104 42.669-42.669 0-23.562-19.104-42.666-42.669-42.666h-307.199c-23.564 0-42.667 19.104-42.667 42.666v938.668zM187.733 720.457c0 23.564 19.102 42.667 42.667 42.667h230.4c23.565 0 42.666-19.102 42.666-42.667s-19.101-42.667-42.666-42.667h-230.4c-23.564 0-42.667 19.102-42.667 42.667zM187.733 532.723c0 23.565 19.102 42.669 42.667 42.669h469.334c23.562 0 42.666-19.104 42.666-42.669 0-23.562-19.104-42.666-42.666-42.666h-469.334c-23.564 0-42.667 19.104-42.667 42.666zM187.733 344.991c0 23.562 19.102 42.666 42.667 42.666h110.934c23.562 0 42.666-19.104 42.666-42.666 0-23.565-19.104-42.669-42.666-42.669h-110.934c-23.564 0-42.667 19.104-42.667 42.669zM187.733 157.257c0 23.565 19.102 42.666 42.667 42.666h110.934c23.562 0 42.666-19.101 42.666-42.666s-19.104-42.666-42.666-42.666h-110.934c-23.564 0-42.667 19.101-42.667 42.666zM941.597 437.443l-228.074-407.85-123.344 122.733c-18.333 18.493-46.851 16.438-65.184 0-18.33-18.493-16.294-47.258 0-65.75l143.715-141.226c12.224-12.326 28.518-18.493 44.813-18.493 16.298 0 42.256 9.008 54.477 21.334l238.934 421.446c17.066 26.554 17.066 47.888-0.154 65.75-18.333 18.493-46.851 18.493-65.184 2.054z" />
<glyph unicode="&#xe921;" glyph-name="comment-written" data-tags="comment-written" d="M512.001 809.385c-237.714 0-438.858-135.473-438.858-296.421 0-86.264 57.143-168.475 156-225.21l49.714-28.947-15.428-55.579c-10.857-41.106-25.143-72.949-40-99.581 57.713 24.318 110.285 57.317 157.144 99.002l24.57 22 32.571-3.473c24.57-2.895 49.715-4.632 74.286-4.632 237.714 0 438.857 135.473 438.857 296.421s-201.143 296.421-438.857 296.421zM1024 512.963c0-204.948-229.142-370.527-512-370.527-28.001 0-55.999 1.738-82.858 4.632-74.857-67.158-164-114.631-262.856-140.105-20.571-5.791-42.857-9.843-65.143-12.738h-2.857c-11.428 0-21.714 9.264-24.571 22v0.579c-2.857 14.473 6.857 23.158 15.428 33.579 36 41.106 77.143 75.841 104 172.525-117.715 67.737-193.143 172.527-193.143 290.054 0 204.947 229.143 370.527 512 370.527 282.859 0 512-165.579 512-370.527zM242.527 506.227c0 29.766 24.009 53.895 53.628 53.895h0.537c29.615 0 53.625-24.129 53.625-53.895s-24.010-53.895-53.625-53.895h-0.537c-29.618 0-53.628 24.129-53.628 53.895zM458.106 506.227c0 29.766 24.010 53.895 53.625 53.895h0.54c29.615 0 53.625-24.129 53.625-53.895s-24.010-53.895-53.625-53.895h-0.54c-29.615 0-53.625 24.129-53.625 53.895zM700.632 506.227c0 29.766 24.010 53.895 53.625 53.895h0.54c29.615 0 53.625-24.129 53.625-53.895s-24.010-53.895-53.625-53.895h-0.54c-29.615 0-53.625 24.129-53.625 53.895z" />
<glyph unicode="&#xe924;" glyph-name="student_in_progress" data-tags="student_in_progress" d="M508.122 310.857c21.423 0 38.788-17.365 38.788-38.788v-63.3l36.74-18.368c19.162-9.583 26.927-32.883 17.344-52.041-9.579-19.162-32.879-26.927-52.036-17.348l-58.185 29.090c-13.141 6.571-21.44 20.002-21.44 34.697v87.27c0 21.423 17.365 38.788 38.788 38.788zM213.317 391.924c21.208 0 38.4-17.19 38.4-38.4v-81.873h81.876c21.208 0 38.4-17.195 38.4-38.4 0-21.21-17.192-38.4-38.4-38.4h-120.276c-21.208 0-38.4 17.19-38.4 38.4v120.273c0 21.21 17.192 38.4 38.4 38.4zM652.083 159.561c0 21.21 17.19 38.4 38.4 38.4h120.277c21.205 0 38.4-17.19 38.4-38.4v-120.277c0-21.205-17.195-38.4-38.4-38.4-21.21 0-38.4 17.195-38.4 38.4v81.877h-81.877c-21.21 0-38.4 17.19-38.4 38.4zM459.401 466.403c43.234 12.937 88.964 14.336 132.881 4.058 43.913-10.278 84.463-31.868 117.909-62.618 33.438-30.746 58.684-69.636 73.51-112.981 6.865-20.066-3.84-41.894-23.906-48.759s-41.894 3.836-48.759 23.902c-10.748 31.415-28.966 59.366-52.826 81.301-23.855 21.935-52.57 37.154-83.43 44.378-30.852 7.219-62.959 6.242-93.363-2.854-30.413-9.101-58.244-26.065-80.833-49.446-0.279-0.286-0.563-0.572-0.85-0.849l-116.984-113.715c-15.207-14.78-39.518-14.438-54.301 0.772-14.782 15.206-14.437 39.518 0.77 54.298l116.569 113.31c31.528 32.482 70.583 56.329 113.613 69.205zM838.187 178.795c14.78-15.206 14.434-39.518-0.772-54.302l-116.57-113.31c-31.526-32.478-70.583-56.329-113.613-69.205-43.234-12.937-88.964-14.336-132.881-4.058-43.913 10.278-84.462 31.868-117.907 62.622-33.438 30.741-58.684 69.632-73.511 112.977-6.864 20.066 3.838 41.899 23.904 48.764 20.066 6.861 41.898-3.84 48.762-23.906 10.746-31.415 28.964-59.362 52.825-81.301 23.853-21.931 52.572-37.15 83.429-44.373 30.852-7.223 62.959-6.242 93.363 2.854 30.417 9.101 58.244 26.061 80.836 49.442 0.277 0.29 0.559 0.572 0.849 0.853l116.983 113.711c15.206 14.784 39.518 14.438 54.302-0.768zM371.627 573.141c0 0 78.080-26.453 117.333-39.68 13.653-4.693 27.307-4.693 40.96 0 41.813 14.080 83.627 28.16 125.44 42.24l84.907 27.733c0 0 1.707 0.853 2.56 0.853 29.867 10.24 60.16 20.053 90.453 30.293 23.893 8.107 47.787 16.213 71.68 24.32 11.947 4.267 21.333 11.947 26.027 23.893 1.28 3.413 3.413 17.92 1.707 23.893-3.84 15.36-13.653 25.173-28.587 30.293-28.16 9.387-56.32 18.773-84.48 28.16-97.28 32.427-194.56 64.853-292.267 97.28-11.52 3.84-23.040 4.267-34.56 0.427-12.8-4.267-26.027-8.533-38.827-12.8-92.587-30.72-184.747-61.44-276.907-92.16-22.613-7.68-45.227-15.36-67.84-23.467-12.8-4.693-20.48-14.080-23.040-27.733-0.853-5.547-0.853-11.52-0.853-17.067v-314.026c0.853-16.213 11.947-30.72 28.16-35.84 15.787-5.547 33.28-0.427 43.52 11.947 8.107 9.387 10.24 20.053 10.24 32v257.28c37.547-12.8 74.24-24.747 111.36-37.12l93.013-30.72zM743.253 690.901c-75.52-25.173-150.613-49.92-226.133-75.093-5.12-1.707-9.813-1.707-14.933 0-80.213 26.88-160.853 53.333-241.493 80.213-1.28 0-2.133 0.853-4.267 1.707 2.133 0.853 3.413 1.28 4.693 1.707 81.067 26.88 161.707 54.187 242.773 80.64 3.413 1.28 7.68 1.28 11.093 0 81.067-26.88 162.56-53.76 243.627-81.067 1.28 0 2.133 0 3.84-1.28-6.827-2.56-12.8-4.693-19.2-6.827z" />
<glyph unicode="&#xe925;" glyph-name="student_completed" data-tags="student_completed" d="M936.021 299.533l-226.756-276.378-102.647 102.076c-17.186 17.335-43.917 15.407-61.103 0-17.182-17.335-15.275-44.297 0-61.632l121.745-119.407c11.456-11.558 26.731-17.335 42.005-17.335s30.549 5.777 42.005 17.335l245.85 291.78c17.186 17.335 17.186 44.301 0 61.632-17.182 17.335-43.913 17.335-61.099 1.929zM932.693 706.803c-3.84 15.36-13.653 25.173-28.587 30.293-28.16 9.387-56.32 18.773-84.48 28.16-97.28 32.427-194.56 64.853-292.267 97.28-11.52 3.84-23.040 4.267-34.56 0.427-12.8-4.267-26.027-8.533-38.827-12.8-92.587-30.72-184.747-61.44-276.907-92.16-22.613-7.68-45.227-15.36-67.84-23.467-12.8-4.693-20.48-14.080-23.040-27.733-0.853-5.547-0.853-11.52-0.853-17.067v-314.026c0.853-16.213 11.947-30.72 28.16-35.84 15.787-5.547 33.28-0.427 43.52 11.947 8.107 9.387 10.24 20.053 10.24 32v257.279c37.547-12.8 74.24-24.747 111.36-37.12-32-59.307-41.813-121.172-27.733-186.452 14.507-65.28 49.067-117.76 103.68-157.867-1.28-0.427-2.133-0.853-2.56-1.28-64.427-28.16-117.76-70.4-159.147-127.573-6.827-8.96-14.080-17.92-17.067-29.44-4.267-16.213-0.853-29.867 11.947-40.96 11.947-10.24 25.6-13.653 40.533-7.68 10.667 3.84 17.92 11.947 23.893 20.907 15.787 22.187 33.28 43.093 54.187 60.587 3.84 2.987 7.253 5.547 11.093 8.96h0.427c3.84 2.987 7.68 5.973 11.52 8.533 7.68 5.973 15.36 11.093 23.467 15.36 15.787 9.813 32 17.493 48.64 23.467 5.547 2.56 11.52 4.693 17.493 5.973 5.973 2.133 12.373 3.84 18.347 5.12 5.973 1.707 12.373 2.987 18.773 3.84 7.68 1.707 15.36 2.56 23.040 2.987 8.96 0.853 17.92 1.28 26.88 1.28h0.853c9.813 0 20.053-0.427 30.293-1.707 10.667-0.853 20.907-2.133 31.573-4.267 4.693-0.853 8.96-1.707 13.653-2.56 1.28-0.427 2.987-0.427 4.267-1.28 11.947-2.56 23.467-5.973 34.56-10.667 12.8-4.693 24.747-10.667 37.12-17.067 9.387-5.12 19.627-8.96 30.72-7.68 16.213 1.707 26.453 11.093 32.427 25.6 6.4 15.36 2.987 29.44-8.107 41.813-1.707 2.133-3.84 4.267-6.4 5.973-0.427 0.427-0.853 0.853-1.707 1.28-9.387 5.547-19.2 10.667-29.44 15.36-3.413 1.707-7.253 3.413-11.52 5.12h0.427c53.76 40.533 88.32 92.587 102.827 157.44 14.507 65.707 4.693 127.572-27.307 186.452 1.28 0.427 1.707 0.853 2.56 0.853 29.867 10.24 60.16 20.053 90.453 30.293 23.893 8.107 47.787 16.213 71.68 24.32 11.947 4.267 21.333 11.947 26.027 23.893 1.28 3.413 2.133 6.827 7.68 5.12-2.133 6.827-4.267 12.8-5.973 18.773zM638.293 344.99c-31.147-32-69.547-49.067-113.92-52.48-4.693-0.427-8.96-0.427-13.653-0.427h-1.707c-46.507 0-87.893 15.787-123.733 47.36-22.613 20.053-37.12 46.080-47.787 74.24-7.68 19.627-11.52 40.107-11.52 61.867 0 32 10.24 62.292 26.027 90.026 2.56 3.84 3.84 9.813 7.253 11.093 2.987 1.28 8.107-2.133 12.373-3.413 39.253-13.227 78.080-26.453 117.333-39.68 13.653-4.693 27.307-4.693 40.96 0 41.813 14.080 83.627 28.16 125.44 42.24 3.84 1.28 5.547 0.853 7.68-2.56 17.493-26.027 26.88-54.612 28.587-85.332 2.133-55.040-14.507-103.68-53.333-142.933zM743.253 691.016c-75.52-25.173-150.613-49.92-226.133-75.093-5.12-1.707-9.813-1.707-14.933 0-80.213 26.88-160.853 53.333-241.493 80.213-1.28 0-2.133 0.853-4.267 1.707 2.133 0.853 3.413 1.28 4.693 1.707 81.067 26.88 161.707 54.187 242.773 80.64 3.413 1.28 7.68 1.28 11.093 0 81.067-26.88 162.56-53.76 243.627-81.067 1.28 0 2.133 0 3.84-1.28-6.827-2.56-12.8-4.693-19.2-6.827z" />
<glyph unicode="&#xe926;" glyph-name="published_course" data-tags="published_course" d="M42.667 822.857c0 23.564 19.103 42.667 42.667 42.667h256c56.579 0 110.844-22.476 150.848-62.484 40.009-40.008 62.485-94.27 62.485-150.849h-85.333c0 33.948-13.487 66.505-37.491 90.51s-56.561 37.49-90.509 37.49h-213.333v-554.667h256c30.218 0 59.61-8.013 85.333-22.865h85.333v-147.802c0-23.565-19.102-42.667-42.667-42.667s-42.667 19.102-42.667 42.667c0 22.63-8.99 44.335-24.994 60.339s-37.708 24.994-60.339 24.994h-298.667c-23.564 0-42.667 19.102-42.667 42.667v640zM531.819 803.040c40.004 40.008 94.268 62.484 150.848 62.484h256c23.565 0 42.667-19.103 42.667-42.667v-640c0-23.565-19.102-42.667-42.667-42.667h-298.667c-22.63 0-44.335-8.99-60.339-24.994s-24.994-37.709-24.994-60.339c0-23.565-19.102-42.667-42.667-42.667s-42.667 19.102-42.667 42.667v147.802h85.333c25.724 14.852 55.117 22.865 85.333 22.865h256v554.667h-213.333c-33.946 0-66.505-13.486-90.509-37.49s-37.491-56.562-37.491-90.51h-85.333c0 56.579 22.477 110.842 62.485 150.849zM355.264 470.157c41.387 41.813 83.2 83.628 125.013 125.015 19.2 19.2 44.373 19.2 64-0.427 41.387-41.387 82.773-82.775 124.16-124.588 18.347-17.92 18.773-44.373 1.707-61.44-16.64-17.067-43.093-17.067-61.44 0.853-15.36 14.933-30.293 30.293-45.227 45.227-2.56 2.133-4.693 4.267-8.96 8.107v-146.773c0-5.973-0.427-11.947-1.707-17.493-5.973-20.907-25.173-32.853-46.933-30.293-20.053 2.56-35.84 19.627-36.267 40.533-0.427 46.933 0 93.867 0 140.8v12.373c-3.413-2.56-5.547-3.84-7.253-5.547-15.787-15.36-31.147-31.147-46.506-46.507-18.347-17.92-44.8-18.773-61.867-1.707-17.066 16.64-17.067 43.52 1.28 61.867z" />
<glyph unicode="&#xe927;" glyph-name="pending_course" data-tags="pending_course" d="M42.667 822.857c0 23.564 19.103 42.667 42.667 42.667h256c56.579 0 110.844-22.476 150.848-62.484 40.009-40.008 62.485-94.27 62.485-150.849h-85.333c0 33.948-13.487 66.505-37.491 90.51s-56.561 37.49-90.509 37.49h-213.333v-554.667h256c30.218 0 59.61-8.013 85.333-22.865h85.333v-147.802c0-23.565-19.102-42.667-42.667-42.667s-42.667 19.102-42.667 42.667c0 22.63-8.99 44.335-24.994 60.339s-37.708 24.994-60.339 24.994h-298.667c-23.564 0-42.667 19.102-42.667 42.667v640zM531.819 803.040c40.004 40.008 94.268 62.484 150.848 62.484h256c23.565 0 42.667-19.103 42.667-42.667v-640c0-23.565-19.102-42.667-42.667-42.667h-298.667c-22.63 0-44.335-8.99-60.339-24.994s-24.994-37.709-24.994-60.339c0-23.565-19.102-42.667-42.667-42.667s-42.667 19.102-42.667 42.667v147.802h85.333c25.724 14.852 55.117 22.865 85.333 22.865h256v554.667h-213.333c-33.946 0-66.505-13.486-90.509-37.49s-37.491-56.562-37.491-90.51h-85.333c0 56.579 22.477 110.842 62.485 150.849zM512 579.659c-82.475 0-149.333-66.861-149.333-149.335 0-82.47 66.859-149.333 149.333-149.333s149.333 66.863 149.333 149.333c0 82.475-66.859 149.335-149.333 149.335zM277.333 430.324c0 129.605 105.064 234.669 234.667 234.669 129.604 0 234.667-105.064 234.667-234.669 0-129.6-105.062-234.667-234.667-234.667-129.603 0-234.667 105.067-234.667 234.667zM490.658 545.527c23.565 0 42.667-19.103 42.667-42.665v-69.632l40.414-20.207c21.077-10.539 29.619-36.169 19.081-57.242-10.534-21.077-36.164-29.619-57.242-19.085l-64 32c-14.455 7.228-23.586 22.003-23.586 38.165v96c0 23.563 19.102 42.665 42.667 42.665z" />
<glyph unicode="&#xe929;" glyph-name="list-check" data-tags="list-check" d="M230.456 780.19c-12.008 0-24.532-4.034-33.725-13.181l-60.087-60.133-13.181 13.227c-18.34 18.294-49.11 18.294-67.45 0-18.294-18.34-18.294-49.11 0-67.45l46.906-46.906c18.341-18.294 49.111-18.294 67.451 0l93.813 93.812c18.293 18.341 18.293 49.111 0 67.451-9.194 9.147-21.717 13.181-33.725 13.181zM418.082 733.284c-25.892 0-46.906-21.014-46.906-46.906s21.014-46.906 46.906-46.906h515.968c25.894 0 46.908 21.014 46.908 46.906s-21.013 46.906-46.908 46.906h-515.968zM230.456 545.658c-12.008 0-24.532-4.034-33.725-13.181l-60.087-60.131-13.181 13.227c-18.34 18.291-49.11 18.291-67.45 0-18.294-18.342-18.294-49.114 0-67.452l46.906-46.908c18.341-18.291 49.111-18.291 67.451 0l93.813 93.815c18.293 18.338 18.293 49.109 0 67.449-9.194 9.147-21.717 13.181-33.725 13.181zM418.082 498.752c-25.892 0-46.906-21.013-46.906-46.908 0-25.89 21.014-46.903 46.906-46.903h515.968c25.894 0 46.908 21.013 46.908 46.903 0 25.894-21.013 46.908-46.908 46.908h-515.968zM230.456 311.126c-12.008 0-24.532-4.032-33.725-13.18l-60.087-60.134-13.181 13.227c-18.34 18.295-49.11 18.295-67.45 0-18.294-18.338-18.294-49.109 0-67.452l46.906-46.903c18.341-18.295 49.111-18.295 67.451 0l93.813 93.811c18.293 18.342 18.293 49.109 0 67.452-9.194 9.148-21.717 13.18-33.725 13.18zM418.082 264.222c-25.892 0-46.906-21.018-46.906-46.908 0-25.894 21.014-46.908 46.906-46.908h515.968c25.894 0 46.908 21.013 46.908 46.908 0 25.89-21.013 46.908-46.908 46.908h-515.968z" />
<glyph unicode="&#xe92a;" glyph-name="icon-h5p" data-tags="icon-h5p" d="M210.549-30.523c-21.76 0-43.093 5.547-61.867 16.213-19.2 10.667-35.413 26.453-46.507 45.227s-17.493 40.533-17.92 62.293l-1.28 688.642c0 21.76 5.547 43.093 16.64 62.293 10.667 18.773 26.027 34.56 44.8 45.653 18.347 11.52 39.253 17.493 61.013 18.347 21.333 0.853 43.093-4.267 62.293-14.507l607.573-323.413c20.053-11.093 35.84-26.453 47.36-45.227s17.493-40.109 18.347-62.295c0.427-22.187-4.693-43.947-15.36-63.147s-26.027-35.84-44.8-47.36l-606.293-364.8c-19.2-11.52-40.96-17.493-63.147-17.493h-1.28l0.427-0.427zM168.309 782.279l1.28-687.789c0-6.4 2.133-13.227 5.547-19.627 3.84-5.973 8.96-11.093 14.933-14.507 6.4-3.413 12.8-5.547 20.48-5.12 7.253 0 14.080 2.133 20.053 5.547l605.44 364.373c5.547 3.413 10.667 8.96 14.080 14.933 3.413 6.4 5.12 13.227 5.12 20.48s-2.133 14.080-5.973 20.053c-3.84 6.4-8.96 11.093-15.36 14.507l-605.867 322.989c-5.973 2.987-13.227 4.267-20.053 4.693-6.827 0-14.080-2.133-20.053-5.973s-11.093-8.533-14.507-14.933c-3.413-5.973-5.12-12.8-5.12-20.053v0.427zM399.986 374.81c-17.92 0-34.56 11.093-40.533 29.013-7.253 22.187 4.693 46.507 26.88 54.187 24.32 8.107 77.225 36.267 77.225 66.134 0 14.933-5.12 29.867-14.933 41.387s-23.040 19.2-37.972 21.76c-14.933 2.56-30.293 0-43.093-7.68s-23.040-19.627-27.733-33.707c-7.68-22.187-32-33.707-54.613-26.027-22.187 7.68-33.707 32-26.027 54.614 11.52 33.28 34.987 61.44 65.28 78.933 30.293 17.92 66.133 24.32 100.692 18.347s66.133-23.893 88.747-50.773 34.987-61.013 34.987-96.427c0-98.987-122.027-142.507-135.678-147.2-4.267-1.707-8.96-2.133-13.653-2.133l0.427-0.427zM402.975 225.477c-23.467 0-42.667 19.2-42.667 42.667s18.773 42.667 42.667 42.667c23.467 0 42.667-19.2 42.667-42.667s-19.2-42.667-42.667-42.667z" />
<glyph unicode="&#xf002;" glyph-name="search" data-tags="search" d="M12.193 488.838c0 248.431 201.395 449.827 449.828 449.827s449.828-201.393 449.828-449.827-201.394-449.828-449.828-449.828c-248.432 0-449.828 201.397-449.828 449.828zM462.020 838.704c-193.227 0-349.866-156.639-349.866-349.866s156.642-349.865 349.866-349.865c193.229 0 349.865 156.636 349.865 349.865s-156.636 349.866-349.865 349.866zM709.068 241.788c19.517 19.519 51.166 19.519 70.682 0l217.418-217.418c19.519-19.517 19.519-51.166 0-70.682-19.519-19.519-51.166-19.519-70.682 0l-217.418 217.418c-19.519 19.519-19.519 51.166 0 70.682z" />
<glyph unicode="&#xf003;" glyph-name="envelope-o" data-tags="envelope-o" d="M950.858 127.999v438.857c-12-13.714-25.143-26.286-39.429-37.714-81.714-62.857-164-126.857-243.429-193.143-42.857-36-96-80-155.429-80h-1.143c-59.429 0-112.571 44-155.429 80-79.429 66.286-161.714 130.286-243.429 193.143-14.286 11.429-27.429 24-39.429 37.714v-438.857c0-9.714 8.571-18.286 18.286-18.286h841.143c9.714 0 18.286 8.571 18.286 18.286zM950.858 728.571c0 14.286 3.429 39.429-18.286 39.429h-841.143c-9.714 0-18.286-8.571-18.286-18.286 0-65.143 32.571-121.714 84-162.286 76.571-60 153.143-120.571 229.143-181.143 30.286-24.571 85.143-77.143 125.143-77.143h1.143c40 0 94.857 52.571 125.143 77.143 76 60.571 152.571 121.143 229.143 181.143 37.143 29.143 84 92.571 84 141.143zM1024.001 749.714v-621.714c0-50.286-41.143-91.429-91.429-91.429h-841.143c-50.286 0-91.429 41.143-91.429 91.429v621.714c0 50.286 41.143 91.429 91.429 91.429h841.143c50.286 0 91.429-41.143 91.429-91.429z" />
<glyph unicode="&#xf004;" glyph-name="heart" data-tags="heart" d="M512-0.001c-9.143 0-18.286 3.429-25.143 10.286l-356.571 344c-4.571 4-130.286 118.857-130.286 256 0 167.429 102.286 267.429 273.143 267.429 100 0 193.714-78.857 238.857-123.429 45.143 44.571 138.857 123.429 238.857 123.429 170.857 0 273.143-100 273.143-267.429 0-137.143-125.714-252-130.857-257.143l-356-342.857c-6.857-6.857-16-10.286-25.143-10.286z" />
<glyph unicode="&#xf005;" glyph-name="star" data-tags="star" horiz-adv-x="951" d="M185.134-7.219l77.006 329.946-256.045 221.827 337.274 29.188 132.089 311.191 132.092-311.129 337.212-29.188-255.983-221.829 77.005-329.946-290.325 175.13-290.324-175.189z" />
<glyph unicode="&#xf006;" glyph-name="star-o" data-tags="star-o" horiz-adv-x="951" d="M262.14 322.727l-256.045 221.827 337.274 29.188 132.089 311.191 132.092-311.129 337.212-29.188-255.983-221.829 77.005-329.946-290.325 175.13-290.324-175.189 77.006 329.946zM214.465 476.933l142.481-123.439-42.749-183.168 161.252 97.306 161.28-97.289-42.756 183.206 142.455 123.447-187.371 16.218-73.591 173.339-73.604-173.403-187.397-16.218z" />
<glyph unicode="&#xf007;" glyph-name="user" data-tags="user" d="M135.366 265.698c46.867 46.873 110.431 73.197 176.709 73.197h399.847c66.28 0 129.839-26.325 176.708-73.193 0-0.004 0-0.004 0.004-0.004zM135.366 265.698c0 0-0.001 0-0.002 0-46.865-46.867-73.195-110.428-73.195-176.708v-99.961c0-27.605 22.377-49.981 49.981-49.981s49.981 22.376 49.981 49.981v99.961c0 39.77 15.798 77.905 43.915 106.025h0.002c28.118 28.118 66.256 43.919 106.025 43.919h399.847c39.77 0 77.905-15.799 106.021-43.919l0.004-0.004c28.118-28.114 43.919-66.251 43.919-106.021v-99.961c0-27.605 22.376-49.981 49.981-49.981s49.981 22.376 49.981 49.981v99.961c0 66.28-26.325 129.839-73.193 176.708zM262.095 688.762c0 138.019 111.887 249.905 249.905 249.905s249.905-111.886 249.905-249.905c0-138.019-111.888-249.905-249.905-249.905s-249.905 111.886-249.905 249.905zM512 838.704c-82.812 0-149.942-67.131-149.942-149.942s67.13-149.942 149.942-149.942c82.808 0 149.942 67.132 149.942 149.942s-67.134 149.942-149.942 149.942z" />
<glyph unicode="&#xf009;" glyph-name="th-large" data-tags="th-large" d="M12.191 888.685c0 27.604 22.376 49.981 49.981 49.981h349.868c27.603 0 49.981-22.376 49.981-49.981v-349.867c0-27.603-22.378-49.981-49.981-49.981h-349.868c-27.604 0-49.981 22.378-49.981 49.981v349.867zM112.152 838.704v-249.905h249.905v249.905h-249.905zM561.979 888.685c0 27.604 22.378 49.981 49.981 49.981h349.867c27.603 0 49.981-22.376 49.981-49.981v-349.867c0-27.603-22.378-49.981-49.981-49.981h-349.867c-27.603 0-49.981 22.378-49.981 49.981v349.867zM661.944 838.704v-249.905h249.905v249.905h-249.905zM561.979 338.896c0 27.603 22.378 49.981 49.981 49.981h349.867c27.603 0 49.981-22.378 49.981-49.981v-349.867c0-27.603-22.378-49.981-49.981-49.981h-349.867c-27.603 0-49.981 22.378-49.981 49.981v349.867zM661.944 288.915v-249.905h249.905v249.905h-249.905zM12.191 338.896c0 27.603 22.376 49.981 49.981 49.981h349.868c27.603 0 49.981-22.378 49.981-49.981v-349.867c0-27.603-22.378-49.981-49.981-49.981h-349.868c-27.604 0-49.981 22.378-49.981 49.981v349.867zM112.152 288.915v-249.905h249.905v249.905h-249.905z" />
<glyph unicode="&#xf00a;" glyph-name="th" data-tags="th" d="M0 950.857h292.571v-292.571h-292.571v292.571zM73.143 877.714v-146.286h146.286v146.286h-146.286zM365.714 950.857h292.571v-292.571h-292.571v292.571zM438.857 877.714v-146.286h146.286v146.286h-146.286zM365.714 585.143h292.571v-292.571h-292.571v292.571zM438.857 512v-146.286h146.286v146.286h-146.286zM731.429 950.857h292.571v-292.571h-292.571v292.571zM804.571 877.714v-146.286h146.286v146.286h-146.286zM731.429 585.143h292.571v-292.571h-292.571v292.571zM804.571 512v-146.286h146.286v146.286h-146.286zM0 585.143h292.571v-292.571h-292.571v292.571zM73.143 512v-146.286h146.286v146.286h-146.286zM365.714 219.428h292.571v-292.571h-292.571v292.571zM438.857 146.286v-146.286h146.286v146.286h-146.286zM731.429 219.428h292.571v-292.571h-292.571v292.571zM804.571 146.286v-146.286h146.286v146.286h-146.286zM0 219.428h292.571v-292.571h-292.571v292.571zM73.143 146.286v-146.286h146.286v146.286h-146.286z" />
<glyph unicode="&#xf00b;" glyph-name="th-list" data-tags="th-list" d="M292.571 237.714v-109.714c0-30.286-24.571-54.857-54.857-54.857h-182.857c-30.286 0-54.857 24.571-54.857 54.857v109.714c0 30.286 24.571 54.857 54.857 54.857h182.857c30.286 0 54.857-24.571 54.857-54.857zM292.571 530.286v-109.714c0-30.286-24.571-54.857-54.857-54.857h-182.857c-30.286 0-54.857 24.571-54.857 54.857v109.714c0 30.286 24.571 54.857 54.857 54.857h182.857c30.286 0 54.857-24.571 54.857-54.857zM1024 237.714v-109.714c0-30.286-24.571-54.857-54.857-54.857h-548.571c-30.286 0-54.857 24.571-54.857 54.857v109.714c0 30.286 24.571 54.857 54.857 54.857h548.571c30.286 0 54.857-24.571 54.857-54.857zM292.571 822.857v-109.714c0-30.286-24.571-54.857-54.857-54.857h-182.857c-30.286 0-54.857 24.571-54.857 54.857v109.714c0 30.286 24.571 54.857 54.857 54.857h182.857c30.286 0 54.857-24.571 54.857-54.857zM1024 530.286v-109.714c0-30.286-24.571-54.857-54.857-54.857h-548.571c-30.286 0-54.857 24.571-54.857 54.857v109.714c0 30.286 24.571 54.857 54.857 54.857h548.571c30.286 0 54.857-24.571 54.857-54.857zM1024 822.857v-109.714c0-30.286-24.571-54.857-54.857-54.857h-548.571c-30.286 0-54.857 24.571-54.857 54.857v109.714c0 30.286 24.571 54.857 54.857 54.857h548.571c30.286 0 54.857-24.571 54.857-54.857z" />
<glyph unicode="&#xf00c;" glyph-name="check" data-tags="check" d="M337.889 228.433l-188.144 188.145c-21.149 21.147-55.442 21.191-76.666 0.114-21.331-21.18-21.414-55.683-0.158-76.937l226.578-226.579c21.202-21.201 55.577-21.201 76.782 0l574.829 574.833c21.147 21.145 21.147 55.426 0 76.571-21.136 21.137-55.405 21.145-76.552 0.018l-536.667-536.165z" />
<glyph unicode="&#xf00d;" glyph-name="close, remove, times" data-tags="close, remove, times" horiz-adv-x="805" d="M740.772 701.528c20.938 20.937 20.938 54.881 0 75.816s-54.878 20.937-75.816 0l-262.671-262.671-262.671 262.671c-20.937 20.937-54.881 20.937-75.816 0s-20.937-54.881 0-75.816l262.671-262.671-262.671-262.671c-20.937-20.938-20.937-54.878 0-75.816s54.881-20.938 75.816 0l262.671 262.671 262.671-262.671c20.938-20.938 54.878-20.938 75.816 0s20.938 54.878 0 75.816l-262.671 262.671 262.671 262.671z" />
<glyph unicode="&#xf012;" glyph-name="signal" data-tags="signal" d="M814.586 778.597h79.892v-679.075h-79.892v679.075zM767.984 871.803c-25.739 0-46.604-20.866-46.604-46.604v-772.282c0-25.739 20.864-46.604 46.604-46.604h173.099c25.739 0 46.604 20.864 46.604 46.604v772.282c0 25.738-20.864 46.604-46.604 46.604h-173.099zM471.716 578.865h79.892v-479.349h-79.892v479.349zM425.113 672.071c-25.737 0-46.603-20.864-46.603-46.604v-572.556c0-25.739 20.866-46.604 46.603-46.604h173.099c25.739 0 46.604 20.864 46.604 46.604v572.556c0 25.738-20.864 46.604-46.604 46.604h-173.099zM129.52 378.74h79.892v-279.62h-79.892v279.62zM82.917 471.946c-25.738 0-46.604-20.864-46.604-46.604v-372.826c0-25.735 20.866-46.604 46.604-46.604h173.098c25.738 0 46.604 20.869 46.604 46.604v372.826c0 25.739-20.864 46.604-46.604 46.604h-173.098z" />
<glyph unicode="&#xf013;" glyph-name="cog, gear" data-tags="cog, gear" d="M512.011 512.554c-40.7 0-73.698-32.994-73.698-73.698 0-40.7 32.998-73.698 73.698-73.698 40.704 0 73.698 32.998 73.698 73.698 0 40.704-32.994 73.698-73.698 73.698zM352.981 438.856c0 87.831 71.2 159.031 159.029 159.031s159.031-71.2 159.031-159.031c0-87.829-71.202-159.031-159.031-159.031s-159.029 71.202-159.029 159.031zM512.002 822.856c-9.259 0-18.138-3.678-24.683-10.225-6.549-6.547-10.227-15.426-10.227-24.684v-6.764c-0.081-20.802-6.246-41.126-17.732-58.47s-27.793-30.951-46.914-39.145c-3.482-1.492-7.139-2.511-10.873-3.035-17.268-5.975-35.833-7.43-53.909-4.152-20.971 3.802-40.322 13.8-55.558 28.703l-0.337 0.329-2.325 2.329c-3.242 3.246-7.109 5.838-11.347 7.594s-8.78 2.661-13.368 2.661c-4.588 0-9.13-0.904-13.368-2.661s-8.088-4.332-11.33-7.577l-0.033-0.034c-3.246-3.242-5.821-7.092-7.578-11.33s-2.661-8.78-2.661-13.368c0-4.588 0.905-9.13 2.661-13.368s4.332-8.088 7.578-11.33l2.676-2.676c14.903-15.236 24.899-34.589 28.701-55.56 3.722-20.528 1.341-41.687-6.833-60.861-7.474-19.554-20.541-36.489-37.584-48.678-17.409-12.45-38.161-19.375-59.559-19.878l-0.998-0.009h-3.491c-9.258 0-18.138-3.678-24.684-10.227-6.547-6.545-10.225-15.424-10.225-24.683s3.678-18.138 10.225-24.687c6.547-6.545 15.426-10.223 24.684-10.223h6.764c20.802-0.085 41.126-6.246 58.47-17.732 17.281-11.447 30.852-27.678 39.056-46.707 8.531-19.443 11.066-40.99 7.277-61.888-3.802-20.971-13.8-40.32-28.703-55.556l-0.329-0.337-2.329-2.325c-3.246-3.243-5.837-7.108-7.594-11.345-1.757-4.241-2.661-8.781-2.661-13.372 0-4.587 0.904-9.126 2.661-13.367 1.757-4.237 4.332-8.085 7.577-11.328l0.034-0.034c3.242-3.247 7.092-5.82 11.33-7.578s8.78-2.662 13.368-2.662c4.588 0 9.13 0.905 13.368 2.662s8.088 4.331 11.33 7.578l2.676 2.675c15.236 14.903 34.589 24.9 55.56 28.702 20.528 3.725 41.687 1.344 60.861-6.831 19.555-7.475 36.489-20.544 48.679-37.585 12.45-17.408 19.375-38.161 19.878-59.558l0.009-0.998v-3.49c0-9.259 3.678-18.138 10.227-24.687 6.545-6.545 15.424-10.223 24.683-10.223s18.138 3.678 24.687 10.223c6.545 6.549 10.223 15.428 10.223 24.687v6.763c0.085 20.804 6.246 41.126 17.732 58.47 11.443 17.28 27.674 30.852 46.703 39.057 19.443 8.529 40.994 11.068 61.892 7.279 20.971-3.806 40.32-13.803 55.556-28.706l0.337-0.329 2.325-2.33c3.243-3.247 7.108-5.837 11.345-7.595 4.241-1.754 8.781-2.658 13.372-2.658 4.587 0 9.126 0.905 13.367 2.658 4.237 1.758 8.085 4.335 11.328 7.578l0.034 0.034c3.247 3.243 5.82 7.091 7.578 11.332 1.758 4.237 2.662 8.781 2.662 13.367s-0.905 9.131-2.662 13.367c-1.758 4.237-4.331 8.090-7.578 11.328l-2.675 2.679c-14.903 15.236-24.9 34.586-28.702 55.561-3.789 20.894-1.254 42.445 7.279 61.888 8.201 19.029 21.773 35.26 39.053 46.703 17.344 11.486 37.67 17.651 58.47 17.732h3.661c9.259 0 18.138 3.678 24.687 10.227 6.545 6.545 10.223 15.424 10.223 24.683s-3.678 18.138-10.223 24.683c-6.549 6.549-15.428 10.227-24.687 10.227h-6.763c-20.804 0.081-41.126 6.246-58.47 17.732s-30.95 27.793-39.147 46.914c-1.493 3.482-2.509 7.139-3.034 10.873-5.978 17.268-7.433 35.833-4.156 53.909 3.806 20.971 13.803 40.322 28.706 55.558l0.329 0.336 2.33 2.325c3.247 3.242 5.837 7.11 7.595 11.347 1.754 4.238 2.658 8.78 2.658 13.368s-0.905 9.13-2.658 13.368c-1.758 4.238-4.331 8.088-7.578 11.33l-0.034 0.033c-3.243 3.246-7.091 5.821-11.332 7.578-4.237 1.757-8.781 2.661-13.367 2.661s-9.131-0.905-13.367-2.661c-4.237-1.757-8.090-4.332-11.328-7.578l-2.679-2.676c-15.236-14.903-34.586-24.899-55.561-28.701-20.894-3.789-42.441-1.254-61.884 7.277-19.034 8.204-35.264 21.775-46.707 39.056-11.486 17.344-17.651 37.668-17.732 58.47v3.661c0 9.258-3.678 18.138-10.227 24.684-6.545 6.547-15.424 10.225-24.683 10.225zM426.976 872.971c22.554 22.55 53.137 35.218 85.026 35.218s62.473-12.668 85.026-35.218c22.549-22.55 35.217-53.134 35.217-85.024v-3.381c0.026-4.14 1.259-8.182 3.546-11.634 2.295-3.469 5.559-6.19 9.382-7.829l0.422-0.18c3.9-1.721 8.222-2.237 12.416-1.476 4.139 0.75 7.962 2.706 10.987 5.62l2.103 2.1c-0.009-0.006 0.004 0.006 0 0 11.162 11.172 24.435 20.052 39.023 26.1 14.601 6.051 30.246 9.166 46.046 9.166 15.804 0 31.45-3.115 46.046-9.166s27.861-14.92 39.027-26.1c11.162-11.16 20.019-24.41 26.065-38.992 6.050-14.597 9.165-30.244 9.165-46.046s-3.115-31.448-9.165-46.045c-6.046-14.59-14.912-27.845-26.082-39.009-0.004-0.006 0.004 0.006 0 0l-2.116-2.116c-2.914-3.028-4.873-6.851-5.619-10.988-0.764-4.194-0.247-8.52 1.472-12.42 1.097-2.481 1.95-5.056 2.551-7.685 1.489-2.041 3.332-3.811 5.461-5.22 3.452-2.286 7.492-3.517 11.631-3.546h6.485c31.889 0 62.477-12.668 85.026-35.216 22.549-22.554 35.217-53.137 35.217-85.026s-12.668-62.473-35.217-85.026c-22.549-22.549-53.137-35.217-85.026-35.217h-3.379c-4.139-0.026-8.183-1.259-11.635-3.546-3.469-2.295-6.191-5.559-7.829-9.382l-0.179-0.422c-1.724-3.9-2.236-8.222-1.476-12.416 0.751-4.139 2.705-7.962 5.619-10.991l2.099-2.099c-0.004 0.009 0.009-0.004 0 0 11.174-11.162 20.053-24.435 26.099-39.023 6.054-14.601 9.169-30.246 9.169-46.046 0-15.804-3.115-31.45-9.169-46.046-6.050-14.596-14.916-27.861-26.099-39.027l-30.153 30.187 30.187-30.153c-11.166-11.179-24.427-20.049-39.023-26.099-14.601-6.050-30.246-9.165-46.046-9.165-15.804 0-31.45 3.115-46.046 9.165-14.592 6.046-27.849 14.912-39.010 26.082-0.004 0.004 0.004-0.004 0 0l-2.116 2.116c-3.029 2.914-6.852 4.873-10.987 5.619-4.194 0.764-8.521 0.247-12.42-1.472l-0.418-0.183c-3.827-1.643-7.087-4.361-9.387-7.829-2.287-3.452-3.516-7.492-3.546-11.635v-6.481c0-31.889-12.668-62.477-35.217-85.026s-53.133-35.217-85.026-35.217c-31.889 0-62.473 12.668-85.022 35.217-22.551 22.549-35.219 53.137-35.219 85.026v2.859c-0.169 4.147-1.545 8.162-3.964 11.546-2.49 3.482-5.97 6.135-9.988 7.612-0.844 0.311-1.677 0.649-2.5 1.011-3.9 1.719-8.225 2.231-12.42 1.472-4.138-0.751-7.96-2.705-10.988-5.619l-2.099-2.099c-0.006-0.009 0.005 0.004 0 0-11.164-11.174-24.436-20.053-39.026-26.099-14.597-6.054-30.244-9.169-46.046-9.169s-31.448 3.115-46.045 9.169c-14.583 6.042-27.832 14.899-38.992 26.065-11.18 11.166-20.049 24.427-26.1 39.023-6.051 14.601-9.166 30.246-9.166 46.046 0 15.804 3.115 31.45 9.166 46.046 6.048 14.592 14.911 27.849 26.083 39.010-0.006-0.004 0.006 0.004 0 0l2.116 2.116c2.914 3.029 4.87 6.852 5.62 10.987 0.76 4.194 0.247 8.521-1.474 12.42l-0.185 0.418c-1.639 3.827-4.358 7.087-7.827 9.387-3.452 2.287-7.494 3.516-11.634 3.546h-6.484c-31.89 0-62.474 12.668-85.024 35.217s-35.218 53.133-35.218 85.026c0 31.889 12.668 62.473 35.218 85.022 22.55 22.551 53.134 35.219 85.024 35.219h2.858c4.15 0.169 8.164 1.545 11.547 3.964 3.482 2.49 6.134 5.97 7.611 9.988 0.31 0.844 0.647 1.677 1.010 2.5 1.721 3.9 2.235 8.225 1.474 12.42-0.75 4.137-2.706 7.959-5.62 10.988l-2.1 2.1c-0.006 0.006 0.006-0.006 0 0-11.172 11.164-20.052 24.436-26.1 39.026-6.051 14.597-9.166 30.244-9.166 46.046s3.115 31.448 9.166 46.045c6.048 14.59 14.912 27.846 26.083 39.009 11.164 11.172 24.419 20.035 39.009 26.083 14.597 6.051 30.244 9.166 46.046 9.166s31.448-3.115 46.045-9.166c14.59-6.048 27.846-14.911 39.009-26.083-0.006 0.006 0.006-0.006 0 0l2.116-2.117c3.028-2.914 6.85-4.87 10.988-5.62 4.194-0.76 8.52-0.247 12.42 1.474 2.482 1.095 5.056 1.949 7.686 2.552 2.041 1.487 3.811 3.333 5.219 5.46 2.286 3.451 3.517 7.493 3.546 11.631v6.487c0 31.89 12.668 62.474 35.216 85.024z" />
</font>
</defs>
</svg>
